<?xml version="1.0" standalone="no"?>
<!DOCTYPE svg PUBLIC "-//W3C//DTD SVG 1.1//EN" "http://www.w3.org/Graphics/SVG/1.1/DTD/svg11.dtd" >
<svg xmlns="http://www.w3.org/2000/svg" xmlns:xlink="http://www.w3.org/1999/xlink" version="1.1">
<metadata>
Created by FontForge 20201107 at Mon Jan 29 11:06:10 2018
 By Jimmy Wärting
Modern and elegant sans serif font family.
</metadata>
<defs>
<font id="Mont-Bold" horiz-adv-x="0" >
  <font-face 
    font-family="Mont Bold"
    font-weight="800"
    font-stretch="normal"
    units-per-em="1000"
    panose-1="0 0 9 0 0 0 0 0 0 0"
    ascent="800"
    descent="-200"
    x-height="540"
    cap-height="700"
    bbox="-800 -308.55 1185.82 1000.18"
    underline-thickness="50"
    underline-position="-100"
    stemh="100"
    stemv="149"
    unicode-range="U+0020-25CA"
  />
<missing-glyph horiz-adv-x="465" 
d="M381 734.63v-929.27h-294.58v929.27h294.58zM309.45 672.37h-153.33v-30.6602h60.4004v-34.3896h-61.3301v-30.6602h154.26v30.6602h-61.3398v34.3896h61.3398v30.6602zM248.11 552.5l-92.9199 0.000976562v-96.6504h154.26v31.5996h-61.3398v65.0498zM216.521 520.901
v-33.4502h-30.6699v33.4502h30.6699zM309.45 430.761h-154.26v-30.6602h61.3301v-34.3896h-61.3301v-30.6602h92.9199v65.0498h61.3398v30.6602zM309.45 375.011h-30.6699v-61.3398h-123.59v-31.5898h154.26v92.9297zM309.45 261.631h-92.9297v-52.04h31.5898v21.3799
h30.6699v-43.6797h-92.9297v74.3398h-30.6602v-105h154.26v105zM309.45 100.871h-154.26v-105.01h154.26v105.01zM278.78 70.2012v-43.6699h-92.9297v43.6699h92.9297zM309.45 -25.5088h-154.26v-30.6699h65.0498l-65.0498 -43.6699v-30.6699h154.26v30.6699h-94.79
l65.0498 43.6699h29.7402v30.6699z" />
    <glyph glyph-name="f_f.liga" unicode="ff" horiz-adv-x="789" 
d="M774.82 532.72l0.000976562 -120.358h-135.82v-412.36h-146v412.36h-228.09v-412.36h-146v412.36h-93.5498v120.36h94.3604v48.9102c0 103.37 57.9102 169.55 171.37 169.55h108.63v-114.91h-79.3604c-38.4502 0 -59.2705 -19.8203 -59.2705 -58.2705v-45.2803h232.73
v48.9102c0 103.37 57.9004 169.55 171.36 169.55h108.64v-114.91h-79.3701c-38.4502 0 -59.2705 -19.8203 -59.2705 -58.2705v-45.2803h139.64z" />
    <glyph glyph-name="f_f_t.liga" unicode="fft" horiz-adv-x="1192" 
d="M1097.91 134.91l61.7188 0.00195312v-134.91h-80.9102c-132.72 0 -217.18 84.6299 -217.18 217.36v195h-222.54v-412.36h-146v412.36h-228.09v-412.36h-146v412.36h-93.5498v120.36h94.3604v48.9102c0 103.37 57.9102 169.55 171.37 169.55h108.63v-114.91h-79.3604
c-38.4502 0 -59.2705 -19.8203 -59.2705 -58.2705v-45.2803h232.73v48.9102c0 103.37 57.9004 169.55 171.36 169.55h101.91v-114.91h-72.6396c-38.4502 0 -59.2705 -19.8203 -59.2705 -58.2705v-45.2803h226.36v158.19h146v-158.19h151.73v-120.36h-151.73v-186.73
c0 -58.7197 31.6396 -90.7197 90.3701 -90.7197z" />
    <glyph glyph-name="f_t.liga" unicode="ft" horiz-adv-x="835" 
d="M741.36 134.91l61.7305 0.000976562v-134.91h-80.9102c-132.73 0 -217.181 84.4502 -217.181 217.181v195.18h-240.09v-412.36h-146v412.36h-93.5498v120.36h94.3604v48.9102c0 103.37 57.9102 169.55 171.37 169.55h108.63v-114.91h-79.3604
c-38.4502 0 -59.2705 -19.8203 -59.2705 -58.2705v-45.2803h243.91v158.19h146v-158.19h151.72v-120.36h-151.72v-186.91c0 -58.7305 31.6299 -90.54 90.3604 -90.54z" />
    <glyph glyph-name="f_t_t.liga" unicode="ftt" horiz-adv-x="1218" 
d="M1124.09 134.91h61.7295v-134.91h-81.0996c-132.54 0 -217 84.4502 -217 217.181v195.18h-253.72v-186.91c0 -58.7305 31.6299 -90.54 90.3604 -90.54h61.7305v-134.91h-80.9102c-132.73 0 -217.181 84.4502 -217.181 217.181v195.18h-223.09v-412.36h-146v412.36
h-93.5498v120.36h94.3604v50.7305c0 103.37 57.9102 169.55 171.37 169.55h108.63v-114.91h-79.3604c-38.4502 0 -59.2705 -19.8203 -59.2705 -58.2705v-47.0996h226.91v158.19h146v-158.19h253.72v158.19h146v-158.19h151.91v-120.36h-151.91v-186.91
c0 -58.7305 31.6396 -90.54 90.3701 -90.54z" />
    <glyph glyph-name="r_f.liga" unicode="rf" horiz-adv-x="812" 
d="M797.18 540l0.000976562 -122.369h-135.82v-417.63h-146v417.63h-93.54v122.37h94.3604v41.6299c0 103.37 57.9102 169.55 171.36 169.55h108.64v-114.91h-79.3604c-38.46 0 -59.2803 -19.8203 -59.2803 -58.2705v-38h139.64zM189.811 473.471
c38.4297 47.6299 87.1914 68.9814 156.461 68.9814h38.1797v-134.91h-53.54c-82.2803 -0.360352 -114.82 -36.8203 -114.82 -124.721v-282.82h-146v540h93.6299z" />
    <glyph glyph-name="t_f.liga" unicode="tf" horiz-adv-x="792" 
d="M776.91 532.72l0.00195312 -120.359h-135.82v-412.36h-146v412.36h-244.55v-200.18c0 -52.1797 30 -82.1797 83.1797 -82.1797h58.3701v-130h-95.7305c-118.82 0 -191.82 73 -191.82 192.82v219.54h-97.4502v29.1797l213.45 239.37h27.5498v-148.19h247.82v56.46
c0 103.36 57.9102 169.54 171.36 169.54h108.64v-114.9h-79.3701c-38.4502 0 -59.2705 -19.8203 -59.2705 -58.2803v-52.8203h139.64z" />
    <glyph glyph-name=".notdef" horiz-adv-x="465" 
d="M381 734.63v-929.27h-294.58v929.27h294.58zM309.45 672.37h-153.33v-30.6602h60.4004v-34.3896h-61.3301v-30.6602h154.26v30.6602h-61.3398v34.3896h61.3398v30.6602zM248.11 552.5l-92.9199 0.000976562v-96.6504h154.26v31.5996h-61.3398v65.0498zM216.521 520.901
v-33.4502h-30.6699v33.4502h30.6699zM309.45 430.761h-154.26v-30.6602h61.3301v-34.3896h-61.3301v-30.6602h92.9199v65.0498h61.3398v30.6602zM309.45 375.011h-30.6699v-61.3398h-123.59v-31.5898h154.26v92.9297zM309.45 261.631h-92.9297v-52.04h31.5898v21.3799
h30.6699v-43.6797h-92.9297v74.3398h-30.6602v-105h154.26v105zM309.45 100.871h-154.26v-105.01h154.26v105.01zM278.78 70.2012v-43.6699h-92.9297v43.6699h92.9297zM309.45 -25.5088h-154.26v-30.6699h65.0498l-65.0498 -43.6699v-30.6699h154.26v30.6699h-94.79
l65.0498 43.6699h29.7402v30.6699z" />
    <glyph glyph-name="A" unicode="A" horiz-adv-x="718" 
d="M544.82 0l-48.8691 132.72h-278.56l-48.0303 -132.72h-160.73l274.37 700h143l283.18 -700h-164.36zM356.011 515.01l-91.3701 -250.29h183.68z" />
    <glyph glyph-name="Aacute" unicode="&#xc1;" horiz-adv-x="718" 
d="M505.54 909.36l-100.27 -142h-110.45l55.4502 142h155.27zM544.82 0l-48.8691 132.72h-278.56l-48.0303 -132.72h-160.73l274.37 700h143l283.18 -700h-164.36zM356.011 515.01l-91.3701 -250.29h183.68z" />
    <glyph glyph-name="Abreve" unicode="&#x102;" horiz-adv-x="718" 
d="M354.54 758.27c-101.36 0 -169.271 60.0898 -169.271 151.09h112.09v-4.63965c0 -31.7197 21.7305 -51.7197 56.3604 -51.7197c34.6396 0 56 20 56 51.7197v4.63965h114.91c0 -91 -67.9102 -151.09 -170.09 -151.09zM544.82 -0l-48.8691 132.72h-278.56l-48.0303 -132.72
h-160.73l274.37 700h143l283.18 -700h-164.36zM356.011 515.01l-91.3701 -250.29h183.68z" />
    <glyph glyph-name="Acircumflex" unicode="&#xc2;" horiz-adv-x="718" 
d="M353.97 835.18l-72.251 -67.8203h-125.18l114.73 142h165.55l115.54 -142h-125.18zM544.818 -0.000976562l-48.8691 132.72h-278.56l-48.0303 -132.72h-160.73l274.37 700h143l283.18 -700h-164.36zM356.009 515.009l-91.3701 -250.29h183.68z" />
    <glyph glyph-name="Adieresis" unicode="&#xc4;" horiz-adv-x="718" 
d="M160.64 768.46v134.91h154.73v-134.91h-154.73zM394.37 768.46v134.91h154.73v-134.91h-154.73zM544.82 0.00976562l-48.8486 132.73h-278.57l-48.0303 -132.73h-160.73l274.36 700h143l283.18 -700h-164.36zM356.031 515.03l-91.3701 -250.29h183.68z" />
    <glyph glyph-name="Agrave" unicode="&#xc0;" horiz-adv-x="718" 
d="M301.91 767.36l-100.28 142h155.28l55.4502 -142h-110.45zM544.82 0l-48.8691 132.72h-278.56l-48.0303 -132.72h-160.73l274.37 700h143l283.18 -700h-164.36zM356.011 515.01l-91.3701 -250.29h183.68z" />
    <glyph glyph-name="Amacron" unicode="&#x100;" horiz-adv-x="718" 
d="M197.72 777.27v123.18h313v-123.18h-313zM544.819 -0.000976562l-48.8691 132.72h-278.56l-48.0303 -132.72h-160.73l274.37 700h143l283.18 -700h-164.36zM356.01 515.009l-91.3701 -250.29h183.68z" />
    <glyph glyph-name="Aogonek" unicode="&#x104;" horiz-adv-x="716" 
d="M558.54 -88c0 -28.6396 23.0898 -45.9082 63.3701 -45.9082c19.6299 0 39.2695 3.82031 55.0898 11.6299v-79.54c-27.9102 -19.3604 -63.0898 -30.2705 -98.0898 -30.2705c-76.7305 0 -130.641 45.0898 -130.641 109.18c0 54.0596 34.96 103.649 90.5303 137.029
l-43.6699 118.6h-278.56l-48.0303 -132.72h-160.72l274.36 700h143l281.26 -695.24l3.91992 -4.75977c-106 -3.82031 -151.82 -42.46 -151.82 -88zM355.19 515.011l-91.3701 -250.29h183.68z" />
    <glyph glyph-name="Aring" unicode="&#xc5;" horiz-adv-x="718" 
d="M354.54 744.63c-80.3604 0 -134.63 51.46 -134.63 127.46c0 77 54.2695 128.09 134.63 128.09c79.3701 0 133.64 -51.0898 133.64 -128.09c0 -76 -54.2695 -127.46 -133.64 -127.46zM354.54 816c32.9102 0 58.0898 23.3604 58.0898 56.0908
c0 32.9102 -25.1797 56.0898 -58.0898 56.0898c-33.9102 0 -59.0898 -23.1797 -59.0898 -56.0898c0 -32.7305 25.1797 -56.0908 59.0898 -56.0908zM544.82 0l-48.8691 132.72h-278.56l-48.0303 -132.72h-160.73l274.37 700h143l283.18 -700h-164.36zM356.011 515.01
l-91.3701 -250.29h183.68z" />
    <glyph glyph-name="Atilde" unicode="&#xc3;" horiz-adv-x="718" 
d="M424.27 762.45c-41 0 -69.8193 19.4609 -94.4492 34.0908c-16.8203 10.0898 -31 19.1797 -44.2803 19.1797c-19.4502 0 -36 -16.4502 -36 -40.7197v-7.73047h-80.7197v10.7305c0 83.1797 42.7197 136.27 115.72 136.27c40.0898 0 65.5498 -16.4502 87.5498 -32.3604
c16.3604 -12.2803 31.7305 -22.5498 50.3604 -22.5498c21.2695 0 35.8193 16.2695 35.8193 41.5498v9h80.9102v-11c0 -84.1904 -43.9102 -136.46 -114.91 -136.46zM544.82 0.000976562l-48.8691 132.72h-278.56l-48.0303 -132.72h-160.73l274.37 700h143l283.18 -700
h-164.36zM356.011 515.011l-91.3701 -250.29h183.68z" />
    <glyph glyph-name="AE" unicode="&#xc6;" horiz-adv-x="928" 
d="M605.36 140.91l274.91 -0.000976562v-140.91h-428.82v130.72h-218.84l-75.7002 -130.72h-175.19l409.19 700h478.36v-139.09h-263.91v-139.09h237.91v-137.1h-237.91v-143.81zM309.051 262.719h142.4v245.91z" />
    <glyph glyph-name="AEacute" unicode="&#x1fc;" horiz-adv-x="928" 
d="M687.63 909.36l-100.27 -142h-110.45l55.4502 142h155.27zM605.36 140.91l274.91 -0.000976562v-140.91h-428.82v130.72h-218.84l-75.7002 -130.72h-175.19l409.19 700h478.36v-139.09h-263.91v-139.09h237.91v-137.1h-237.91v-143.81zM309.051 262.719h142.4v245.91z
" />
    <glyph glyph-name="B" unicode="B" horiz-adv-x="642" 
d="M501.1 369.18c61.8203 -32.4199 96.9082 -93.1699 96.9082 -167.189c0 -112.27 -98.7305 -202 -220.37 -202h-297.55v700h289.45c120.73 0 210.461 -77 210.461 -180c0 -60.1699 -29.5898 -116.28 -78.8994 -150.811zM433.107 496.359
c0 43.9102 -30.46 74.6289 -78 74.6289h-126.18v-149.27h126.18c47.7305 0 78 30.9102 78 74.6406zM363.377 138.987c49.8203 0 82.6309 32.9102 82.6309 78.9102c0 45 -32.8203 78.0898 -82.6406 78.0898h-134.45v-157h134.46z" />
    <glyph glyph-name="C" unicode="C" horiz-adv-x="771" 
d="M401.09 -15.0898c-205.55 0 -361.45 157.532 -361.45 364.263c0 208.36 155.91 365.91 361.46 365.91c170.36 0 306.271 -112.73 338.721 -278.82h-151.82c-28.6396 82.6396 -98.6396 134.279 -186.909 134.279c-118.46 0 -208 -95.4502 -208 -221.36
s89.54 -219.73 208 -219.73c92.0898 0 163.09 55.6396 188.27 144.279h152.64c-31.6396 -173.09 -167.55 -288.82 -340.91 -288.82z" />
    <glyph glyph-name="Cacute" unicode="&#x106;" horiz-adv-x="771" 
d="M338 767.36l55.4502 142h155.27l-100.27 -142h-110.45zM401.09 -15.0898c-205.55 0 -361.45 157.532 -361.45 364.263c0 208.36 155.91 365.91 361.46 365.91c170.36 0 306.271 -112.73 338.721 -278.82h-151.82c-28.6396 82.6396 -98.6396 134.279 -186.909 134.279
c-118.46 0 -208 -95.4502 -208 -221.36s89.54 -219.73 208 -219.73c92.0898 0 163.09 55.6396 188.27 144.279h152.64c-31.6396 -173.09 -167.55 -288.82 -340.91 -288.82z" />
    <glyph glyph-name="Ccaron" unicode="&#x10c;" horiz-adv-x="771" 
d="M470.36 909.36h125.19l-115.54 -142h-165.55l-114.73 142h125.18l72.25 -67.8203zM401.101 -15.0898c-205.55 0 -361.45 157.532 -361.45 364.263c0 208.36 155.91 365.91 361.46 365.91c170.36 0 306.271 -112.73 338.721 -278.82h-151.82
c-28.6396 82.6396 -98.6396 134.279 -186.909 134.279c-118.46 0 -208 -95.4502 -208 -221.36s89.54 -219.73 208 -219.73c92.0898 0 163.09 55.6396 188.27 144.279h152.64c-31.6396 -173.09 -167.55 -288.82 -340.91 -288.82z" />
    <glyph glyph-name="Ccedilla" unicode="&#xc7;" horiz-adv-x="771" 
d="M742 273.73c-29.2695 -160.13 -147.77 -271.178 -302.609 -286.918l-4.00977 -16.2305c51.75 -12.4502 84.6201 -44.8301 84.6201 -93.1396c0 -63.5498 -56.9102 -106 -136.09 -106h-72.0898v73.1797h71.0898c22.6396 0 38.7295 13.7305 38.7295 33.8203
c0 19.9102 -16.0898 33.8203 -38.9102 33.8203h-41.9102l-5.91016 7.4502l15.5498 68.4502c-179.98 23.5195 -310.82 171.63 -310.82 361.01c0 208.36 155.91 365.91 361.46 365.91c170.36 0 306.271 -112.73 338.721 -278.82h-151.82
c-28.6396 82.6396 -98.6396 134.279 -186.909 134.279c-118.46 0 -208 -95.4502 -208 -221.36s89.54 -219.73 208 -219.73c92.0898 0 163.09 55.6396 188.27 144.279h152.64z" />
    <glyph glyph-name="Ccircumflex" unicode="&#x108;" horiz-adv-x="771" 
d="M595.54 767.36h-125.19l-73.2002 67.8203l-72.25 -67.8203h-125.18l114.73 142h165.55zM401.08 -15.0898c-205.55 0 -361.45 157.532 -361.45 364.263c0 208.36 155.91 365.91 361.46 365.91c170.36 0 306.271 -112.73 338.721 -278.82h-151.82
c-28.6396 82.6396 -98.6396 134.279 -186.909 134.279c-118.46 0 -208 -95.4502 -208 -221.36s89.54 -219.73 208 -219.73c92.0898 0 163.09 55.6396 188.27 144.279h152.64c-31.6396 -173.09 -167.55 -288.82 -340.91 -288.82z" />
    <glyph glyph-name="Cdotaccent" unicode="&#x10a;" horiz-adv-x="771" 
d="M322 769.27v134.09h151.45v-134.09h-151.45zM401.09 -15.0908c-205.55 0 -361.45 157.532 -361.45 364.263c0 208.36 155.91 365.91 361.46 365.91c170.36 0 306.271 -112.73 338.721 -278.82h-151.82c-28.6396 82.6396 -98.6396 134.279 -186.909 134.279
c-118.46 0 -208 -95.4502 -208 -221.36s89.54 -219.73 208 -219.73c92.0898 0 163.09 55.6396 188.27 144.279h152.64c-31.6396 -173.09 -167.55 -288.82 -340.91 -288.82z" />
    <glyph glyph-name="D" unicode="D" horiz-adv-x="741" 
d="M344.91 700c206 0 355 -147 355 -349.18c0 -203 -149.82 -350.82 -355 -350.82h-264.82v700h264.82zM341.09 140.54c120.27 0 203.729 87.9102 203.729 210.28c0 123.18 -83.46 208.63 -203.729 208.63h-109.55v-418.91h109.55z" />
    <glyph glyph-name="Eth" unicode="&#xd0;" horiz-adv-x="779" 
d="M383.63 700c206 0 355 -147 355 -349.18c0 -203 -149.81 -350.82 -355 -350.82h-264.81v285.63h-95.9102v130.55h95.9102v283.82h264.81zM379.82 140.54c120.27 0 203.72 87.9092 203.72 210.279c0 123.18 -83.4502 208.63 -203.72 208.63h-109.55v-143.27h142.64
v-130.55h-142.64v-145.09h109.55z" />
    <glyph glyph-name="Dcaron" unicode="&#x10e;" horiz-adv-x="741" 
d="M375.82 767.36h-165.549l-114.73 142h125.18l72.25 -67.8203l73.21 67.8203h125.18zM344.911 700c206 0 355 -147 355 -349.18c0 -203 -149.82 -350.82 -355 -350.82h-264.82v700h264.82zM341.091 140.54c120.27 0 203.729 87.9102 203.729 210.28
c0 123.18 -83.46 208.63 -203.729 208.63h-109.55v-418.91h109.55z" />
    <glyph glyph-name="Dcroat" unicode="&#x110;" horiz-adv-x="779" 
d="M383.63 700c206 0 355 -147 355 -349.18c0 -203 -149.81 -350.82 -355 -350.82h-264.81v285.63h-95.9102v130.55h95.9102v283.82h264.81zM379.82 140.54c120.27 0 203.72 87.9092 203.72 210.279c0 123.18 -83.4502 208.63 -203.72 208.63h-109.55v-143.27h142.64
v-130.55h-142.64v-145.09h109.55z" />
    <glyph glyph-name="E" unicode="E" horiz-adv-x="559" 
d="M231.54 140.91l279.82 -0.000976562v-140.91h-431.27v700h420.27v-139.91h-268.82v-138.27h242.82v-137.1h-242.82v-143.81z" />
    <glyph glyph-name="Eacute" unicode="&#xc9;" horiz-adv-x="559" 
d="M441.36 909.36l-100.27 -142h-110.46l55.46 142h155.27zM231.541 140.91l279.82 -0.000976562v-140.91h-431.27v700h420.27v-139.91h-268.82v-138.27h242.82v-137.1h-242.82v-143.81z" />
    <glyph glyph-name="Ebreve" unicode="&#x114;" horiz-adv-x="559" 
d="M290.36 758.27c-101.36 0 -169.271 60.0898 -169.271 151.09h112.09v-4.63965c0 -31.7197 21.7305 -51.7197 56.3604 -51.7197c34.6396 0 56 20 56 51.7197v4.63965h114.91c0 -91 -67.9102 -151.09 -170.09 -151.09zM231.54 140.909l279.82 -0.000976562v-140.91h-431.27
v700h420.27v-139.91h-268.82v-138.27h242.82v-137.1h-242.82v-143.81z" />
    <glyph glyph-name="Ecaron" unicode="&#x11a;" horiz-adv-x="559" 
d="M372.63 767.36h-165.539l-114.73 142h125.18l72.25 -67.8203l73.21 67.8203h125.18zM231.541 140.91l279.82 -0.000976562v-140.91h-431.27v700h420.27v-139.91h-268.82v-138.27h242.82v-137.1h-242.82v-143.81z" />
    <glyph glyph-name="Ecircumflex" unicode="&#xca;" horiz-adv-x="559" 
d="M289.79 835.18l-72.251 -67.8203h-125.18l114.73 142h165.54l115.55 -142h-125.18zM231.539 140.909l279.82 -0.000976562v-140.91h-431.27v700h420.27v-139.91h-268.82v-138.27h242.82v-137.1h-242.82v-143.81z" />
    <glyph glyph-name="Edieresis" unicode="&#xcb;" horiz-adv-x="559" 
d="M96.46 768.46v134.91h154.73v-134.91h-154.73zM330.19 768.46v134.91h154.73v-134.91h-154.73zM231.551 140.91h279.82v-140.91h-431.27v700h420.27v-139.91h-268.82v-138.27h242.82v-137.09h-242.82v-143.82z" />
    <glyph glyph-name="Edotaccent" unicode="&#x116;" horiz-adv-x="559" 
d="M214.63 769.27v134.09h151.46v-134.09h-151.46zM231.54 140.909l279.82 -0.000976562v-140.91h-431.27v700h420.27v-139.91h-268.82v-138.27h242.82v-137.1h-242.82v-143.81z" />
    <glyph glyph-name="Egrave" unicode="&#xc8;" horiz-adv-x="559" 
d="M237.72 767.36l-100.27 142h155.27l55.46 -142h-110.46zM231.54 140.91l279.82 -0.000976562v-140.91h-431.27v700h420.27v-139.91h-268.82v-138.27h242.82v-137.1h-242.82v-143.81z" />
    <glyph glyph-name="Emacron" unicode="&#x112;" horiz-adv-x="559" 
d="M133.54 777.27v123.18h313v-123.18h-313zM231.54 140.909l279.82 -0.000976562v-140.91h-431.27v700h420.27v-139.91h-268.82v-138.27h242.82v-137.1h-242.82v-143.81z" />
    <glyph glyph-name="Eogonek" unicode="&#x118;" horiz-adv-x="559" 
d="M511.36 0c-72.9102 -7.63965 -118.908 -43.4609 -118.908 -85.3711c0 -30.4502 22.2695 -48.54 59.7295 -48.54c18.8203 0 40.0898 3.82031 58.7295 11.6299v-79.1797c-28.7305 -19.54 -64.9102 -29.8203 -100.91 -29.8203c-75.7305 0 -127.82 44.2803 -127.82 108.37
c0 47.8301 25.2402 91.0498 68.0205 122.91h-270.11v700h420.27v-139.91h-268.82v-138.27h242.82v-137.1h-242.82v-143.81h279.82v-140.91z" />
    <glyph glyph-name="F" unicode="F" horiz-adv-x="535" 
d="M498.18 559.27h-266.64v-154.09h240.64v-137.09h-240.64v-268.09h-151.45v700h418.09v-140.73z" />
    <glyph glyph-name="G" unicode="G" horiz-adv-x="797" 
d="M387.18 365.55l372.551 0.00195312c-0.730469 -219.36 -147.19 -380.82 -357.551 -380.82c-206 0 -362.55 154.64 -362.55 364.46c0 209.64 152.46 365.909 359.729 365.909c173.91 0 318.36 -110.09 351 -266.64h-156.09c-30 75.0898 -104.09 122.09 -192.09 122.09
c-124 0 -209.09 -90.54 -209.09 -221.36c0 -129.55 82.9102 -219.91 209.09 -219.91c90.4004 0 168.96 47.9297 194.83 120.09h-209.83v116.18z" />
    <glyph glyph-name="Gbreve" unicode="&#x11e;" horiz-adv-x="797" 
d="M399.73 758.27c-101.36 0 -169.28 60.0898 -169.28 151.09h112.09v-4.63965c0 -31.7305 21.7305 -51.7305 56.3701 -51.7305s56 20 56 51.7305v4.63965h114.91c0 -91 -67.9102 -151.09 -170.09 -151.09zM387.181 365.539l372.551 0.00195312
c-0.730469 -219.36 -147.19 -380.82 -357.551 -380.82c-206 0 -362.55 154.64 -362.55 364.46c0 209.64 152.46 365.909 359.729 365.909c173.91 0 318.36 -110.09 351 -266.64h-156.09c-30 75.0898 -104.09 122.09 -192.09 122.09c-124 0 -209.09 -90.54 -209.09 -221.36
c0 -129.55 82.9102 -219.91 209.09 -219.91c90.4004 0 168.96 47.9297 194.83 120.09h-209.83v116.18z" />
    <glyph glyph-name="Gcircumflex" unicode="&#x11c;" horiz-adv-x="797" 
d="M399.16 835.19l-72.2607 -67.8203h-125.18l114.73 142h165.55l115.54 -142h-125.18zM387.169 365.55l372.551 0.00195312c-0.730469 -219.36 -147.19 -380.82 -357.551 -380.82c-206 0 -362.55 154.64 -362.55 364.46c0 209.64 152.46 365.909 359.729 365.909
c173.91 0 318.36 -110.09 351 -266.64h-156.09c-30 75.0898 -104.09 122.09 -192.09 122.09c-124 0 -209.09 -90.54 -209.09 -221.36c0 -129.55 82.9102 -219.91 209.09 -219.91c90.4004 0 168.96 47.9297 194.83 120.09h-209.83v116.18z" />
    <glyph glyph-name="Gdotaccent" unicode="&#x120;" horiz-adv-x="797" 
d="M475.45 903.36v-134.09h-151.45v134.09h151.45zM387.181 365.54l372.551 0.00195312c-0.730469 -219.36 -147.19 -380.82 -357.551 -380.82c-206 0 -362.55 154.64 -362.55 364.46c0 209.64 152.46 365.909 359.729 365.909c173.91 0 318.36 -110.09 351 -266.64h-156.09
c-30 75.0898 -104.09 122.09 -192.09 122.09c-124 0 -209.09 -90.54 -209.09 -221.36c0 -129.55 82.9102 -219.91 209.09 -219.91c90.4004 0 168.96 47.9297 194.83 120.09h-209.83v116.18z" />
    <glyph glyph-name="H" unicode="H" horiz-adv-x="727" 
d="M495 700h151.45v-700h-151.45v289.45h-263.46v-289.45h-151.45v700h151.45v-269.64h263.46v269.64z" />
    <glyph glyph-name="Hbar" unicode="&#x126;" horiz-adv-x="752" 
d="M726 636v-117.18h-67.0898v-518.82h-151.46v289.63h-263.45v-289.63h-151.46v518.82h-66.54v117.18h66.54v64h151.46v-64h263.45v64h151.46v-64h67.0898zM507.45 430.181v88.6396h-263.45v-88.6396h263.45z" />
    <glyph glyph-name="Hcircumflex" unicode="&#x124;" horiz-adv-x="727" 
d="M363.34 835.18l-72.25 -67.8203h-125.18l114.72 142h165.55l115.54 -142h-125.18zM495 699.999h151.45v-700h-151.45v289.45h-263.46v-289.45h-151.45v700h151.45v-269.64h263.46v269.64z" />
    <glyph glyph-name="I" unicode="I" horiz-adv-x="312" 
d="M80.0898 0v700h151.45v-700h-151.45z" />
    <glyph glyph-name="IJ" unicode="&#x132;" horiz-adv-x="888" 
d="M80.0898 0v700h151.45v-700h-151.45zM560.359 -15.2803c-150.64 0 -257.91 105.461 -257.91 254.001v25.6396h149.64v-17.54c0 -72.1904 42.54 -119.19 108.271 -119.19c61.9102 0 104.46 46.1904 104.46 119.19v453.18h149.63v-461.28
c0 -148.54 -101.82 -254 -254.09 -254z" />
    <glyph glyph-name="Iacute" unicode="&#xcd;" horiz-adv-x="312" 
d="M98.8203 767.36l39 142h148l-79.3701 -142h-107.63zM80.0898 0v700h151.45v-700h-151.45z" />
    <glyph glyph-name="Ibreve" unicode="&#x12c;" horiz-adv-x="312" 
d="M156.72 758.27c-95.3604 0 -159.27 60.0898 -159.27 151.09h112.09v-4.63965c0 -31.7197 17.7305 -51.7197 46.3701 -51.7197c28.6299 0 46 20 46 51.7197v4.63965h114.91c0 -91 -63.9102 -151.09 -160.101 -151.09zM80.0908 -0v700h151.45v-700h-151.45z" />
    <glyph glyph-name="Icircumflex" unicode="&#xce;" horiz-adv-x="312" 
d="M155.22 834.13l-58.7695 -66.7695h-118.54l103.81 142h147.19l104.63 -142h-119.54zM80.0898 0v700h151.45v-700h-151.45z" />
    <glyph glyph-name="Idieresis" unicode="&#xcf;" horiz-adv-x="312" 
d="M-10.1797 768.45v134.91h139v-134.91h-139zM183 768.45v134.91h139v-134.91h-139zM80.0898 0v700h151.45v-700h-151.45z" />
    <glyph glyph-name="Idotaccent" unicode="&#x130;" horiz-adv-x="312" 
d="M80 769.27v134.09h151.45v-134.09h-151.45zM80.0898 -0.000976562v700h151.45v-700h-151.45z" />
    <glyph glyph-name="Igrave" unicode="&#xcc;" horiz-adv-x="312" 
d="M209.82 767.36h-112.28l-79.1797 142h152.46zM80.0898 0v700h151.45v-700h-151.45z" />
    <glyph glyph-name="Imacron" unicode="&#x12a;" horiz-adv-x="312" 
d="M31.9102 777.27v123.55h248.81v-123.55h-248.81zM80.0898 -0.000976562v700h151.45v-700h-151.45z" />
    <glyph glyph-name="Iogonek" unicode="&#x12e;" horiz-adv-x="312" 
d="M213.91 -133.91c18.6299 0 39.9102 3.82031 58.54 11.6299v-79.1797c-28.7305 -19.54 -64.7305 -29.8203 -100.91 -29.8203c-75.7197 0 -127.63 44.2803 -127.63 108.37c0 46.1299 23.8301 89.1797 65.3105 122.91h-29.1299v700h151.45v-700
c-53.54 -25 -77.54 -51.5498 -77.54 -85.3701c0 -30.4502 22.2695 -48.54 59.9092 -48.54z" />
    <glyph glyph-name="Itilde" unicode="&#x128;" horiz-adv-x="312" 
d="M222.27 762.45c-34.7305 0 -65.8203 19.2695 -89.6406 34.5498c-16.1797 10.2695 -29.7197 18.7197 -40.9102 18.7197c-18.7197 0 -30.8096 -16.8096 -30.8096 -40.7197v-7.73047h-80v10.7305c0 83.1797 38.7197 136.27 109.81 136.27
c37.1904 0 61.8203 -17.0898 83 -32.5498c16.1904 -12.0898 29.5508 -22.3594 46.7305 -22.3594c19.7305 0 30.6406 16.6396 30.6406 41.5498v9h80.1797v-11c0 -84.1904 -39.9102 -136.46 -109 -136.46zM80.0898 0v700h151.45v-700h-151.45z" />
    <glyph glyph-name="J" unicode="J" horiz-adv-x="609" 
d="M280.82 -15.2803c-150.64 0 -257.91 105.461 -257.91 254.001v25.6396h149.63v-17.54c0 -72.1904 42.5498 -119.19 108.28 -119.19c61.9004 0 104.45 46.1904 104.45 119.19v453.18h149.64v-461.28c0 -148.54 -101.82 -254 -254.09 -254z" />
    <glyph glyph-name="Jcircumflex" unicode="&#x134;" horiz-adv-x="609" 
d="M454.13 834.13l-58.7695 -66.7695h-118.54l103.81 142h147.19l104.63 -142h-119.54zM385.271 246.82l-0.000976562 453.181h149.64v-461.28c0 -148.54 -101.82 -254 -254.09 -254c-150.64 0 -257.909 105.46 -257.909 254v25.6396h149.63v-17.54
c0 -72.1904 42.5498 -119.19 108.28 -119.19c61.9004 0 104.45 46.1904 104.45 119.19z" />
    <glyph glyph-name="K" unicode="K" horiz-adv-x="656" 
d="M663.54 0h-184.82l-247.18 341.61v-341.61h-151.45v700h151.45v-323.32l229.46 323.32h176.54l-238.15 -335.39z" />
    <glyph glyph-name="L" unicode="L" horiz-adv-x="522" 
d="M231.54 140.54h268.64v-140.54h-420.09v700h151.45v-559.46z" />
    <glyph glyph-name="Lacute" unicode="&#x139;" horiz-adv-x="522" 
d="M313.63 909.36l-100.27 -142h-110.45l55.4502 142h155.27zM231.54 140.54h268.64v-140.54h-420.09v700h151.45v-559.46z" />
    <glyph glyph-name="Lcaron" unicode="&#x13d;" horiz-adv-x="522" 
d="M348.63 562c37.8203 2.71973 59.5508 24.0898 59.5508 56.7197h-65.1797v115.91h132.27v-106.45c0 -70.3604 -47.8203 -118.36 -126.641 -123.91v57.7305zM231.54 140.54h268.64v-140.54h-420.09v700h151.45v-559.46z" />
    <glyph glyph-name="Ldot" unicode="&#x13f;" horiz-adv-x="529" 
d="M231.54 140.54h268.64v-140.54h-420.09v700h151.45v-559.46zM477.18 408.18v-156.18h-154.73v156.18h154.73z" />
    <glyph glyph-name="Lslash" unicode="&#x141;" horiz-adv-x="522" 
d="M231.54 140.54l268.64 -0.000976562v-140.54h-420.09v224.87l-75 -37.2402v128.64l75 37.8203v345.91h151.45v-269.54l159.55 80.4502v-131.64l-159.55 -79.21v-159.52z" />
    <glyph glyph-name="M" unicode="M" horiz-adv-x="975" 
d="M937.91 0h-154.279l-69.0303 456.8l-208.69 -455.53h-37.2803l-208.72 455.44l-69.1904 -456.71h-154.27l109.64 700h151.73l189.31 -429.14l190.23 429.14h152.09z" />
    <glyph glyph-name="N" unicode="N" horiz-adv-x="752" 
d="M523.72 700h148.639v-700h-126.64l-317 437.47v-437.47h-148.63v700h136.73l306.9 -426.93v426.93z" />
    <glyph glyph-name="Nacute" unicode="&#x143;" horiz-adv-x="752" 
d="M527.73 909.36l-100.28 -142h-110.45l55.4502 142h155.28zM523.72 700h148.639v-700h-126.64l-317 437.47v-437.47h-148.63v700h136.73l306.9 -426.93v426.93z" />
    <glyph glyph-name="Ncaron" unicode="&#x147;" horiz-adv-x="752" 
d="M459 767.36h-165.55l-114.73 142h125.19l72.25 -67.8203l73.2002 67.8203h125.18zM523.72 700h148.639v-700h-126.64l-317 437.47v-437.47h-148.63v700h136.73l306.9 -426.93v426.93z" />
    <glyph glyph-name="Eng" unicode="&#x14a;" horiz-adv-x="752" 
d="M418.45 -190v137.91h43.0898c44.0898 0 73.0898 29.6299 73.0898 71.0898l-305.91 418.45v-437.45h-148.63v700h136.73l306.9 -428v428h148.64v-663.46c0 -140.36 -85.1797 -226.54 -224.54 -226.54h-29.3701z" />
    <glyph glyph-name="Ntilde" unicode="&#xd1;" horiz-adv-x="752" 
d="M271.72 775v-7.72949h-80.7197v10.7305c0 83.1797 42.7197 136.27 115.72 136.27c40.0996 0 65.5498 -16.4502 87.5498 -32.3604c16.3604 -12.2803 31.7305 -22.5498 50.3604 -22.5498c21.2803 0 35.8203 16.2695 35.8203 41.5498v9h80.9102v-11
c0 -84.1904 -43.9102 -136.46 -114.91 -136.46c-41 0 -69.8203 19.46 -94.4502 34.0898c-16.8203 10.0898 -31 19.1797 -44.2803 19.1797c-19.4502 0 -36 -16.4502 -36 -40.7197zM523.72 700.001h148.639v-700h-126.64l-317 437.47v-437.47h-148.63v700h136.73
l306.9 -426.93v426.93z" />
    <glyph glyph-name="O" unicode="O" horiz-adv-x="823" 
d="M412.36 -15.2695c-213.64 0 -373.55 157.458 -373.55 365.278s159.91 365.28 373.55 365.28c212.82 0 371.91 -156.64 371.91 -365.279s-159.09 -365.279 -371.91 -365.279zM412.36 127.639c124.73 0 218.461 95.3604 218.461 222.36s-93.7305 222.36 -218.461 222.36
s-220.091 -96.3604 -220.091 -222.36s95.3604 -222.36 220.091 -222.36z" />
    <glyph glyph-name="Oacute" unicode="&#xd3;" horiz-adv-x="823" 
d="M352.64 767.36l55.4502 142h155.27l-100.27 -142h-110.45zM412.359 -15.2793c-213.64 0 -373.55 157.458 -373.55 365.278s159.91 365.28 373.55 365.28c212.82 0 371.91 -156.64 371.91 -365.279s-159.09 -365.279 -371.91 -365.279zM412.359 127.629
c124.73 0 218.461 95.3604 218.461 222.36s-93.7305 222.36 -218.461 222.36s-220.091 -96.3604 -220.091 -222.36s95.3604 -222.36 220.091 -222.36z" />
    <glyph glyph-name="Obreve" unicode="&#x14e;" horiz-adv-x="823" 
d="M412.36 758.27c-101.36 0 -169.28 60.0898 -169.28 151.09h112.09v-4.63965c0 -31.7305 21.7305 -51.7305 56.3701 -51.7305s56 20 56 51.7305v4.63965h114.91c0 -91 -67.9102 -151.09 -170.09 -151.09zM412.351 -15.2803c-213.64 0 -373.55 157.458 -373.55 365.278
s159.91 365.28 373.55 365.28c212.82 0 371.91 -156.64 371.91 -365.279s-159.09 -365.279 -371.91 -365.279zM412.351 127.628c124.73 0 218.461 95.3604 218.461 222.36s-93.7305 222.36 -218.461 222.36s-220.091 -96.3604 -220.091 -222.36
s95.3604 -222.36 220.091 -222.36z" />
    <glyph glyph-name="Ocircumflex" unicode="&#xd4;" horiz-adv-x="823" 
d="M610.18 767.36h-125.2l-73.2002 67.8203l-72.25 -67.8203h-125.18l114.73 142h165.55zM412.34 -15.2793c-213.64 0 -373.55 157.458 -373.55 365.278s159.91 365.28 373.55 365.28c212.82 0 371.91 -156.64 371.91 -365.279s-159.09 -365.279 -371.91 -365.279z
M412.34 127.629c124.73 0 218.461 95.3604 218.461 222.36s-93.7305 222.36 -218.461 222.36s-220.091 -96.3604 -220.091 -222.36s95.3604 -222.36 220.091 -222.36z" />
    <glyph glyph-name="Odieresis" unicode="&#xd6;" horiz-adv-x="823" 
d="M218.46 768.46v134.91h154.73v-134.91h-154.73zM452.19 768.46v134.91h154.73v-134.91h-154.73zM412.37 -15.2695c-213.64 0 -373.55 157.458 -373.55 365.278s159.91 365.28 373.55 365.28c212.82 0 371.91 -156.64 371.91 -365.279s-159.09 -365.279 -371.91 -365.279z
M412.37 127.639c124.73 0 218.461 95.3604 218.461 222.36s-93.7305 222.36 -218.461 222.36s-220.091 -96.3604 -220.091 -222.36s95.3604 -222.36 220.091 -222.36z" />
    <glyph glyph-name="Ograve" unicode="&#xd2;" horiz-adv-x="823" 
d="M359.73 767.36l-100.27 142h155.27l55.4502 -142h-110.45zM412.371 -15.2793c-213.64 0 -373.55 157.458 -373.55 365.278s159.91 365.28 373.55 365.28c212.82 0 371.91 -156.64 371.91 -365.279s-159.09 -365.279 -371.91 -365.279zM412.371 127.629
c124.73 0 218.461 95.3604 218.461 222.36s-93.7305 222.36 -218.461 222.36s-220.091 -96.3604 -220.091 -222.36s95.3604 -222.36 220.091 -222.36z" />
    <glyph glyph-name="Ohungarumlaut" unicode="&#x150;" horiz-adv-x="823" 
d="M257.18 767.36l46.2803 142h136.09l-85.7305 -142h-96.6396zM447.28 767.36l73.6309 142h142.55l-117.73 -142h-98.4502zM412.371 -15.2793c-213.64 0 -373.55 157.458 -373.55 365.278s159.91 365.28 373.55 365.28c212.82 0 371.91 -156.64 371.91 -365.279
s-159.09 -365.279 -371.91 -365.279zM412.371 127.629c124.73 0 218.461 95.3604 218.461 222.36s-93.7305 222.36 -218.461 222.36s-220.091 -96.3604 -220.091 -222.36s95.3604 -222.36 220.091 -222.36z" />
    <glyph glyph-name="Omacron" unicode="&#x14c;" horiz-adv-x="823" 
d="M255.55 777.27v123.18h313v-123.18h-313zM412.37 -15.2812c-213.64 0 -373.55 157.458 -373.55 365.278s159.91 365.28 373.55 365.28c212.82 0 371.91 -156.64 371.91 -365.279s-159.09 -365.279 -371.91 -365.279zM412.37 127.627
c124.73 0 218.461 95.3604 218.461 222.36s-93.7305 222.36 -218.461 222.36s-220.091 -96.3604 -220.091 -222.36s95.3604 -222.36 220.091 -222.36z" />
    <glyph glyph-name="Oslash" unicode="&#xd8;" horiz-adv-x="837" 
d="M663.18 625.96c82.71 -64.6904 133.819 -164.98 133.819 -281.87c0 -205.82 -158.46 -358.82 -371.729 -358.82c-47.2197 0 -91.8096 7.57031 -132.6 21.6504l-41.6699 -68.9199h-164.37l85.4004 135.52c-82.5303 64.4502 -133.4 163.67 -133.4 278.75
c0 206.82 160.28 362.641 373.55 362.641c46.4297 0 90.3594 -7.91016 130.68 -22.1504l40.5898 69.2402h162.73zM412.179 572c-124.55 0 -218.46 -94.7295 -218.46 -218.729c0 -60.6504 23.4697 -114.41 61.9102 -152.87l216.43 364.02
c-19.0303 5.04004 -39.0898 7.58008 -59.8799 7.58008zM421.629 127.361c125.37 0 220.09 92.5498 220.09 217.55c0 61.5 -23.4199 115.12 -60.9902 153.59l-215.76 -363.52c17.3096 -4.82031 35.9697 -7.62012 56.6602 -7.62012z" />
    <glyph glyph-name="Oslashacute" unicode="&#x1fe;" horiz-adv-x="837" 
d="M568.63 909.36l-100.27 -142h-110.45l55.4502 142h155.27zM663.181 625.96c82.71 -64.6904 133.819 -164.98 133.819 -281.87c0 -205.82 -158.46 -358.82 -371.729 -358.82c-47.2197 0 -91.8096 7.57031 -132.6 21.6504l-41.6699 -68.9199h-164.37l85.4004 135.52
c-82.5303 64.4502 -133.4 163.67 -133.4 278.75c0 206.82 160.28 362.641 373.55 362.641c46.4297 0 90.3594 -7.91016 130.68 -22.1504l40.5898 69.2402h162.73zM412.18 572c-124.55 0 -218.46 -94.7295 -218.46 -218.729c0 -60.6504 23.4697 -114.41 61.9102 -152.87
l216.43 364.02c-19.0303 5.04004 -39.0898 7.58008 -59.8799 7.58008zM421.63 127.361c125.37 0 220.09 92.5498 220.09 217.55c0 61.5 -23.4199 115.12 -60.9902 153.59l-215.76 -363.52c17.3096 -4.82031 35.9697 -7.62012 56.6602 -7.62012z" />
    <glyph glyph-name="Otilde" unicode="&#xd5;" horiz-adv-x="823" 
d="M482.09 762.46c-41 0 -69.8105 19.4502 -94.4502 34.0898c-16.8203 10.0898 -31 19.1797 -44.2695 19.1797c-19.4502 0 -36 -16.4502 -36 -40.7197v-7.73047h-80.7305v10.7305c0 83.1797 42.7305 136.27 115.73 136.27c40.0898 0 65.54 -16.46 87.54 -32.3701
c16.3604 -12.2695 31.7207 -22.5391 50.3604 -22.5391c21.2695 0 35.8193 16.2695 35.8193 41.5391v9h80.9102v-11c0 -84.1797 -43.9102 -136.449 -114.91 -136.449zM412.369 -15.2705c-213.64 0 -373.55 157.458 -373.55 365.278s159.91 365.28 373.55 365.28
c212.82 0 371.91 -156.64 371.91 -365.279s-159.09 -365.279 -371.91 -365.279zM412.369 127.638c124.73 0 218.461 95.3604 218.461 222.36s-93.7305 222.36 -218.461 222.36s-220.091 -96.3604 -220.091 -222.36s95.3604 -222.36 220.091 -222.36z" />
    <glyph glyph-name="OE" unicode="&#x152;" horiz-adv-x="965" 
d="M917.63 140.54l0.0078125 -140.54h-416.38c-35.7695 -10.25 -71.7695 -15.2803 -106.529 -15.2803c-192.27 0 -355.899 154.82 -355.899 366.101c0 204.18 156.36 363.63 355.9 363.63c36 0 71.9404 -4.78027 106.561 -14.4502h405.34v-139.55h-269.18v-138.82h243.18
v-136.72h-243.18v-144.37h280.18zM192.277 350.82c0 -142.37 92.6416 -220.551 223.451 -220.551c22.3701 0 45.9199 1.91992 70.0996 6.04004v427.76c-32.25 6.99023 -54.5498 9.93066 -76.3701 9.93066c-121.73 0 -217.181 -97.1797 -217.181 -223.18z" />
    <glyph glyph-name="P" unicode="P" horiz-adv-x="622" 
d="M349.45 700c140.37 0 247.09 -102.55 247.09 -240.729c0 -138 -106.54 -240.73 -247.09 -240.73h-117.91v-218.54h-151.45v700h269.36zM342.82 358.82c60.0898 0 100.27 42.2715 100.27 100.451s-40.1797 100.449 -100.27 100.449h-111.28v-200.9h111.28z" />
    <glyph glyph-name="Thorn" unicode="&#xde;" horiz-adv-x="632" 
d="M349.45 591.72c142.09 0 247.09 -103 247.09 -241.72c0 -139.73 -105 -241.73 -247.09 -241.73h-117.91v-108.27h-151.45v700h151.45v-108.28h117.91zM342.82 249c59.2695 0 100.27 41.2695 100.27 101c0 59.7197 -41 101 -100.27 101h-111.28v-202h111.28z" />
    <glyph glyph-name="Q" unicode="Q" horiz-adv-x="825" 
d="M812 -75.2803l-154.46 -0.000976562l-81.5801 94.4502c-48.7998 -22.2002 -104.1 -34.4502 -163.6 -34.4502c-213.64 0 -373.54 157.46 -373.54 365.28s159.9 365.271 373.54 365.271c212.82 0 371.91 -156.64 371.91 -365.27
c0 -106.62 -41.5498 -199.66 -110.58 -265.16zM412.36 127.629c21.9297 0 42.9014 2.9502 62.5713 8.5l-139.11 161.05h154.45l85.0898 -98.5098c34.8096 39.0801 55.46 91.7197 55.46 151.33c0 127 -93.7305 222.36 -218.461 222.36s-220.091 -96.3604 -220.091 -222.36
s95.3604 -222.37 220.091 -222.37z" />
    <glyph glyph-name="R" unicode="R" horiz-adv-x="661" 
d="M465.45 0l-136.751 238.909h-97.1602v-238.91h-151.45v700h282.54c140.19 0 244.73 -96.5498 244.73 -231.55c0 -91.5596 -50.1602 -166.409 -127.59 -203.77l154.86 -264.68h-169.18zM231.539 560.089v-181.27h121.18c63.3701 0 101.19 38.0898 101.19 90.6299
c0 52.3701 -37.8203 90.6396 -101.19 90.6396h-121.18z" />
    <glyph glyph-name="Racute" unicode="&#x154;" horiz-adv-x="661" 
d="M453.45 909.36l-100.27 -142h-110.46l55.46 142h155.27zM465.45 0l-136.751 238.909h-97.1602v-238.91h-151.45v700h282.54c140.19 0 244.73 -96.5498 244.73 -231.55c0 -91.5596 -50.1602 -166.409 -127.59 -203.77l154.86 -264.68h-169.18zM231.539 560.089v-181.27
h121.18c63.3701 0 101.19 38.0898 101.19 90.6299c0 52.3701 -37.8203 90.6396 -101.19 90.6396h-121.18z" />
    <glyph glyph-name="Rcaron" unicode="&#x158;" horiz-adv-x="661" 
d="M384.73 767.36h-165.549l-114.73 142h125.18l72.25 -67.8203l73.21 67.8203h125.18zM465.451 0l-136.751 238.909h-97.1602v-238.91h-151.45v700h282.54c140.19 0 244.73 -96.5498 244.73 -231.55c0 -91.5596 -50.1602 -166.409 -127.59 -203.77l154.86 -264.68h-169.18z
M231.54 560.089v-181.27h121.18c63.3701 0 101.19 38.0898 101.19 90.6299c0 52.3701 -37.8203 90.6396 -101.19 90.6396h-121.18z" />
    <glyph glyph-name="S" unicode="S" horiz-adv-x="619" 
d="M312.36 -13.9102c-160.73 0 -271.449 90.2715 -271.449 240.731h152.63c0 -67.6396 55.9102 -100.279 117.82 -100.279c57 0 112.73 30.0898 112.73 82.2803c0 54.2695 -63.8203 69.1797 -139.73 86.8994c-105.54 26 -233.73 56.6396 -233.73 207.46
c0 134.27 98.9102 209.909 253.91 209.909c160.91 0 252.37 -85.9102 252.37 -225.37h-149.64c0 60.2803 -49.7305 88.5498 -106.36 88.5498c-49.0898 0 -98.8203 -20.8203 -98.8203 -66.6406c0 -49.2695 60.8203 -64.1797 134.91 -81.9102
c106.72 -27 240.72 -60.2695 240.72 -217.09c0 -151.18 -120.45 -224.54 -265.36 -224.54z" />
    <glyph glyph-name="Sacute" unicode="&#x15a;" horiz-adv-x="619" 
d="M236.18 767.36l55.4502 142h155.28l-100.28 -142h-110.45zM312.36 -13.9092c-160.73 0 -271.449 90.2715 -271.449 240.731h152.63c0 -67.6396 55.9102 -100.279 117.82 -100.279c57 0 112.73 30.0898 112.73 82.2803c0 54.2695 -63.8203 69.1797 -139.73 86.8994
c-105.54 26 -233.73 56.6396 -233.73 207.46c0 134.27 98.9102 209.909 253.91 209.909c160.91 0 252.37 -85.9102 252.37 -225.37h-149.64c0 60.2803 -49.7305 88.5498 -106.36 88.5498c-49.0898 0 -98.8203 -20.8203 -98.8203 -66.6406
c0 -49.2695 60.8203 -64.1797 134.91 -81.9102c106.72 -27 240.72 -60.2695 240.72 -217.09c0 -151.18 -120.45 -224.54 -265.36 -224.54z" />
    <glyph glyph-name="Scaron" unicode="&#x160;" horiz-adv-x="619" 
d="M368.54 909.36h125.18l-115.54 -142h-165.55l-114.72 142h125.18l72.25 -67.8203zM312.359 -13.9092c-160.73 0 -271.449 90.2715 -271.449 240.731h152.63c0 -67.6396 55.9102 -100.279 117.82 -100.279c57 0 112.73 30.0898 112.73 82.2803
c0 54.2695 -63.8203 69.1797 -139.73 86.8994c-105.54 26 -233.73 56.6396 -233.73 207.46c0 134.27 98.9102 209.909 253.91 209.909c160.91 0 252.37 -85.9102 252.37 -225.37h-149.64c0 60.2803 -49.7305 88.5498 -106.36 88.5498
c-49.0898 0 -98.8203 -20.8203 -98.8203 -66.6406c0 -49.2695 60.8203 -64.1797 134.91 -81.9102c106.72 -27 240.72 -60.2695 240.72 -217.09c0 -151.18 -120.45 -224.54 -265.36 -224.54z" />
    <glyph glyph-name="Scedilla" unicode="&#x15e;" horiz-adv-x="619" 
d="M577.72 210.63c0 -135.15 -96.2588 -208.109 -220.199 -222.06l-6.69043 -27.0596c51.75 -12.46 84.6201 -44.8301 84.6201 -93.1504c0 -63.54 -56.9102 -106 -136.09 -106h-72.0898v73.1797h71.0898c22.6396 0 38.7295 13.7305 38.7295 33.8203
c0 19.9102 -16.0898 33.8203 -38.9102 33.8203h-41.9102l-5.91016 7.4502l17.6904 77.8701c-136.42 15.25 -227.14 102.13 -227.14 238.32h152.63c0 -67.6396 55.9102 -100.279 117.82 -100.279c57 0 112.73 30.0898 112.73 82.2803
c0 54.2695 -63.8203 69.1797 -139.73 86.8994c-105.54 26 -233.73 56.6396 -233.73 207.46c0 134.27 98.9102 209.909 253.91 209.909c160.91 0 252.37 -85.9102 252.37 -225.37h-149.64c0 60.2803 -49.7305 88.5498 -106.36 88.5498
c-49.0898 0 -98.8203 -20.8203 -98.8203 -66.6406c0 -49.2695 60.8203 -64.1797 134.91 -81.9102c106.72 -27 240.72 -60.2695 240.72 -217.09z" />
    <glyph glyph-name="Scircumflex" unicode="&#x15c;" horiz-adv-x="619" 
d="M493.72 767.36h-125.18l-73.2002 67.8203l-72.25 -67.8203h-125.18l114.72 142h165.55zM312.36 -13.9092c-160.73 0 -271.449 90.2715 -271.449 240.731h152.63c0 -67.6396 55.9102 -100.279 117.82 -100.279c57 0 112.73 30.0898 112.73 82.2803
c0 54.2695 -63.8203 69.1797 -139.73 86.8994c-105.54 26 -233.73 56.6396 -233.73 207.46c0 134.27 98.9102 209.909 253.91 209.909c160.91 0 252.37 -85.9102 252.37 -225.37h-149.64c0 60.2803 -49.7305 88.5498 -106.36 88.5498
c-49.0898 0 -98.8203 -20.8203 -98.8203 -66.6406c0 -49.2695 60.8203 -64.1797 134.91 -81.9102c106.72 -27 240.72 -60.2695 240.72 -217.09c0 -151.18 -120.45 -224.54 -265.36 -224.54z" />
    <glyph glyph-name="uni1E9E" unicode="&#x1e9e;" horiz-adv-x="728" 
d="M531.08 454.19c98.21 -30.0801 158.642 -110.181 158.642 -215.65c0 -138.27 -101.27 -238.539 -265 -238.539h-94.6299v141.91h94.6299c64.7305 0 109.91 42.4502 109.91 99.9102c0 60.0898 -43.54 100.899 -109.91 100.899h-77.9004v23.0996l90.8896 193.27h-109.99
c-64.2695 0 -98.2695 -33.8203 -98.2695 -98.0898v-461h-154.73v475.09c0 135.45 89.46 224.91 225.729 224.91h334.91v-23.5498z" />
    <glyph glyph-name="T" unicode="T" horiz-adv-x="584" 
d="M562.54 700v-140.55h-194.63v-559.45h-151.46v559.45h-194.63v140.55h540.72z" />
    <glyph glyph-name="Tbar" unicode="&#x166;" horiz-adv-x="584" 
d="M562.54 559.45h-194.63v-160h124.27v-131.27h-124.27v-268.18h-151.46v268.18h-114.27v131.27h114.27v160h-194.63v140.55h540.72v-140.55z" />
    <glyph glyph-name="Tcaron" unicode="&#x164;" horiz-adv-x="584" 
d="M374.54 767.36h-165.539l-114.73 142h125.18l72.25 -67.8203l73.21 67.8203h125.18zM562.541 700v-140.55h-194.63v-559.45h-151.46v559.45h-194.63v140.55h540.72z" />
    <glyph glyph-name="U" unicode="U" horiz-adv-x="724" 
d="M362.18 -15.2803c-165.55 0 -289.269 114.64 -289.269 278.729v436.55h151.63v-429.55c0 -87.4502 57 -142.82 137.64 -142.82c80.4502 0 137.45 55.3701 137.45 142.82v429.55h151.64v-436.55c0 -164.09 -123.73 -278.729 -289.091 -278.729z" />
    <glyph glyph-name="Uacute" unicode="&#xda;" horiz-adv-x="724" 
d="M302.45 767.36l55.46 142h155.27l-100.27 -142h-110.46zM362.18 -15.2793c-165.55 0 -289.269 114.64 -289.269 278.729v436.55h151.63v-429.55c0 -87.4502 57 -142.82 137.64 -142.82c80.4502 0 137.45 55.3701 137.45 142.82v429.55h151.64v-436.55
c0 -164.09 -123.73 -278.729 -289.091 -278.729z" />
    <glyph glyph-name="Ubreve" unicode="&#x16c;" horiz-adv-x="724" 
d="M362.18 758.27c-101.36 0 -169.27 60.0898 -169.27 151.09h112.09v-4.63965c0 -31.7197 21.7197 -51.7197 56.3594 -51.7197s56 20 56 51.7197v4.63965h114.91c0 -91 -67.9102 -151.09 -170.09 -151.09zM362.181 -15.2803c-165.55 0 -289.269 114.64 -289.269 278.729
v436.55h151.63v-429.55c0 -87.4502 57 -142.82 137.64 -142.82c80.4502 0 137.45 55.3701 137.45 142.82v429.55h151.64v-436.55c0 -164.09 -123.73 -278.729 -289.091 -278.729z" />
    <glyph glyph-name="Ucircumflex" unicode="&#xdb;" horiz-adv-x="724" 
d="M560 767.36h-125.181l-73.21 67.8203l-72.25 -67.8203h-125.18l114.73 142h165.54zM362.18 -15.2793c-165.55 0 -289.269 114.64 -289.269 278.729v436.55h151.63v-429.55c0 -87.4502 57 -142.82 137.64 -142.82c80.4502 0 137.45 55.3701 137.45 142.82v429.55h151.64
v-436.55c0 -164.09 -123.73 -278.729 -289.091 -278.729z" />
    <glyph glyph-name="Udieresis" unicode="&#xdc;" horiz-adv-x="724" 
d="M168.27 768.46v134.91h154.73v-134.91h-154.73zM402 768.46v134.91h154.73v-134.91h-154.73zM362.18 -15.2695c-165.55 0 -289.278 114.64 -289.278 278.729v436.55h151.64v-429.55c0 -87.4502 57 -142.811 137.64 -142.811c80.4502 0 137.45 55.3604 137.45 142.811
v429.55h151.64v-436.55c0 -164.09 -123.73 -278.729 -289.091 -278.729z" />
    <glyph glyph-name="Ugrave" unicode="&#xd9;" horiz-adv-x="724" 
d="M309.54 767.36l-100.27 142h155.27l55.46 -142h-110.46zM362.181 -15.2793c-165.55 0 -289.269 114.64 -289.269 278.729v436.55h151.63v-429.55c0 -87.4502 57 -142.82 137.64 -142.82c80.4502 0 137.45 55.3701 137.45 142.82v429.55h151.64v-436.55
c0 -164.09 -123.73 -278.729 -289.091 -278.729z" />
    <glyph glyph-name="Uhungarumlaut" unicode="&#x170;" horiz-adv-x="724" 
d="M207 767.36l46.2705 142h136.09l-85.7305 -142h-96.6299zM397.091 767.36l73.6309 142h142.55l-117.73 -142h-98.4502zM362.182 -15.2793c-165.55 0 -289.269 114.64 -289.269 278.729v436.55h151.63v-429.55c0 -87.4502 57 -142.82 137.64 -142.82
c80.4502 0 137.45 55.3701 137.45 142.82v429.55h151.64v-436.55c0 -164.09 -123.73 -278.729 -289.091 -278.729z" />
    <glyph glyph-name="Umacron" unicode="&#x16a;" horiz-adv-x="724" 
d="M205.36 777.27v123.18h313v-123.18h-313zM362.181 -15.2812c-165.55 0 -289.269 114.64 -289.269 278.729v436.55h151.63v-429.55c0 -87.4502 57 -142.82 137.64 -142.82c80.4502 0 137.45 55.3701 137.45 142.82v429.55h151.64v-436.55
c0 -164.09 -123.73 -278.729 -289.091 -278.729z" />
    <glyph glyph-name="Uogonek" unicode="&#x172;" horiz-adv-x="724" 
d="M499.63 700h151.46v-432.91c0 -150.18 -91.5498 -210.09 -168 -254.18c-48.9102 -27.9102 -88.46 -55.3701 -88.46 -97.2803c0 -35.0898 29.5498 -50.54 64.3701 -50.54c18.6299 0 38.0898 4.82031 54.0898 12.6299v-81
c-31.5498 -19.54 -69.5498 -28.8096 -105.55 -28.8096c-72.0898 0 -136.91 38.8096 -136.91 112c0 34.5996 19.5898 80.3496 55.1797 109.93c-147.14 15.3799 -252.899 125.29 -252.899 277.25v432.91h151.45v-426.46c0 -87.0898 57 -142.09 137.64 -142.09
c80.6299 0 137.63 55 137.63 142.09v426.46z" />
    <glyph glyph-name="Uring" unicode="&#x16e;" horiz-adv-x="724" 
d="M362.18 744.63c-80.3604 0 -134.641 51.46 -134.641 127.46c0 77 54.2803 128.09 134.641 128.09c79.3604 0 133.641 -51.0898 133.641 -128.09c0 -76 -54.2803 -127.46 -133.641 -127.46zM362.18 816c32.9102 0 58.0898 23.3604 58.0898 56.0908
c0 32.9102 -25.1797 56.0898 -58.0898 56.0898c-33.9102 0 -59.0898 -23.1797 -59.0898 -56.0898c0 -32.7305 25.1797 -56.0908 59.0898 -56.0908zM362.18 -15.2803c-165.55 0 -289.269 114.64 -289.269 278.729v436.55h151.63v-429.55
c0 -87.4502 57 -142.82 137.64 -142.82c80.4502 0 137.45 55.3701 137.45 142.82v429.55h151.64v-436.55c0 -164.09 -123.73 -278.729 -289.091 -278.729z" />
    <glyph glyph-name="Utilde" unicode="&#x168;" horiz-adv-x="724" 
d="M431.91 762.45c-41 0 -69.8203 19.4609 -94.46 34.0908c-16.8203 10.0898 -31 19.1797 -44.2695 19.1797c-19.4502 0 -36 -16.4502 -36 -40.7197v-7.73047h-80.7305v10.7305c0 83.1797 42.7305 136.27 115.73 136.27c40.0898 0 65.5498 -16.4502 87.5498 -32.3604
c16.3604 -12.2803 31.7207 -22.5498 50.3604 -22.5498c21.2695 0 35.8193 16.2695 35.8193 41.5498v9h80.9102v-11c0 -84.1904 -43.9102 -136.46 -114.91 -136.46zM362.18 -15.2793c-165.55 0 -289.269 114.64 -289.269 278.729v436.55h151.63v-429.55
c0 -87.4502 57 -142.82 137.64 -142.82c80.4502 0 137.45 55.3701 137.45 142.82v429.55h151.64v-436.55c0 -164.09 -123.73 -278.729 -289.091 -278.729z" />
    <glyph glyph-name="V" unicode="V" horiz-adv-x="702" 
d="M524 700h165.371l-264.73 -700h-142.81l-273.82 700h167.18l177 -494.85z" />
    <glyph glyph-name="W" unicode="W" horiz-adv-x="1041" 
d="M868.36 700l158.09 -0.000976562l-215.91 -700h-134.72l-156.36 392.44l-151.83 -392.44h-134.72l-220.91 700h160.72l137.41 -465.12l183.87 458.03h51.0898l188.87 -457.89z" />
    <glyph glyph-name="Wacute" unicode="&#x1e82;" horiz-adv-x="1041" 
d="M669.73 909.36l-100.28 -142h-110.45l55.4502 142h155.28zM868.36 700l158.09 -0.000976562l-215.91 -700h-134.72l-156.36 392.44l-151.83 -392.44h-134.72l-220.91 700h160.72l137.41 -465.12l183.87 458.03h51.0898l188.87 -457.89z" />
    <glyph glyph-name="Wcircumflex" unicode="&#x174;" horiz-adv-x="1041" 
d="M518.16 835.18l-72.25 -67.8203h-125.19l114.73 142h165.55l115.54 -142h-125.18zM868.36 699.999l158.09 -0.000976562l-215.91 -700h-134.72l-156.36 392.44l-151.83 -392.44h-134.72l-220.91 700h160.72l137.41 -465.12l183.87 458.03h51.0898l188.87 -457.89z" />
    <glyph glyph-name="Wdieresis" unicode="&#x1e84;" horiz-adv-x="1041" 
d="M324.82 768.46v134.91h154.73v-134.91h-154.73zM558.551 768.46v134.91h154.73v-134.91h-154.73zM868.371 700.01l158.1 -0.000976562l-215.91 -700h-134.73l-156.35 392.44l-151.83 -392.44h-134.73l-220.91 700h160.73l137.41 -465.12l183.86 458.03h51.0898
l188.87 -457.89z" />
    <glyph glyph-name="Wgrave" unicode="&#x1e80;" horiz-adv-x="1041" 
d="M466.09 767.36l-100.27 142h155.27l55.4502 -142h-110.45zM868.36 700l158.09 -0.000976562l-215.91 -700h-134.72l-156.36 392.44l-151.83 -392.44h-134.72l-220.91 700h160.72l137.41 -465.12l183.87 458.03h51.0898l188.87 -457.89z" />
    <glyph glyph-name="X" unicode="X" horiz-adv-x="625" 
d="M622.18 0h-170l-138.14 240.47l-139.95 -240.47h-170.18l217.66 367.41l-203.75 332.59h170l125.02 -215.84l126.07 215.84h165.91l-200.99 -338.18z" />
    <glyph glyph-name="Y" unicode="Y" horiz-adv-x="679" 
d="M663 700l-246.37 -417.49v-282.51h-155.27v283.53l-244.36 416.47h161.27l161.65 -280.12l161.8 280.12h161.28z" />
    <glyph glyph-name="Yacute" unicode="&#xdd;" horiz-adv-x="679" 
d="M491 909.36l-100.28 -142h-110.45l55.4502 142h155.28zM663 700l-246.37 -417.49v-282.51h-155.27v283.53l-244.36 416.47h161.27l161.65 -280.12l161.8 280.12h161.28z" />
    <glyph glyph-name="Ycircumflex" unicode="&#x176;" horiz-adv-x="679" 
d="M339.43 835.18l-72.249 -67.8203h-125.18l114.72 142h165.55l115.55 -142h-125.19zM663.001 699.999l-246.37 -417.49v-282.51h-155.27v283.53l-244.36 416.47h161.27l161.65 -280.12l161.8 280.12h161.28z" />
    <glyph glyph-name="Ydieresis" unicode="&#x178;" horiz-adv-x="679" 
d="M146.09 768.46v134.91h154.73v-134.91h-154.73zM379.82 768.46v134.91h154.73v-134.91h-154.73zM663 700.01l-246.369 -417.49v-282.51h-155.27v283.54l-244.36 416.46h161.27l161.65 -280.12l161.81 280.12h161.27z" />
    <glyph glyph-name="Ygrave" unicode="&#x1ef2;" horiz-adv-x="679" 
d="M287.36 767.36l-100.27 142h155.27l55.46 -142h-110.46zM663.001 700l-246.37 -417.49v-282.51h-155.27v283.53l-244.36 416.47h161.27l161.65 -280.12l161.8 280.12h161.28z" />
    <glyph glyph-name="Z" unicode="Z" horiz-adv-x="583" 
d="M254.38 140.54h300.979v-140.54h-529.36v22.54l292.08 536.91h-275.26v140.55h500.9v-27.8203z" />
    <glyph glyph-name="Zacute" unicode="&#x179;" horiz-adv-x="583" 
d="M458.63 909.36l-100.27 -142h-110.45l55.4502 142h155.27zM254.38 140.54h300.979v-140.54h-529.36v22.54l292.08 536.91h-275.26v140.55h500.9v-27.8203z" />
    <glyph glyph-name="Zcaron" unicode="&#x17d;" horiz-adv-x="583" 
d="M389.91 767.36h-165.55l-114.73 142h125.19l72.25 -67.8203l73.2002 67.8203h125.18zM254.38 140.54h300.979v-140.54h-529.36v22.54l292.08 536.91h-275.26v140.55h500.9v-27.8203z" />
    <glyph glyph-name="Zdotaccent" unicode="&#x17b;" horiz-adv-x="583" 
d="M383.36 903.36v-134.09h-151.45v134.09h151.45zM254.38 140.54h300.979v-140.54h-529.36v22.54l292.08 536.91h-275.26v140.55h500.9v-27.8203z" />
    <glyph glyph-name="uni0122" unicode="&#x122;" horiz-adv-x="797" 
d="M387.18 365.55l372.551 0.00195312c-0.730469 -219.36 -147.19 -380.82 -357.551 -380.82c-206 0 -362.55 154.64 -362.55 364.46c0 209.64 152.46 365.909 359.729 365.909c173.91 0 318.36 -110.09 351 -266.64h-156.09c-30 75.0898 -104.09 122.09 -192.09 122.09
c-124 0 -209.09 -90.54 -209.09 -221.36c0 -129.55 82.9102 -219.91 209.09 -219.91c90.4004 0 168.96 47.9297 194.83 120.09h-209.83v116.18zM339.37 -155.998v115.899h132.27v-106.45c0 -70.3604 -47.8203 -118.36 -126.641 -123.91v57.7305
c37.8203 2.73047 59.5508 24.0908 59.5508 56.7305h-65.1797z" />
    <glyph glyph-name="uni0136" unicode="&#x136;" horiz-adv-x="656" 
d="M399.39 364.61l264.15 -364.61h-184.82l-247.18 341.61v-341.61h-151.45v700h151.45v-323.32l229.46 323.32h176.54zM275.18 -156v115.909h132.27v-106.46c0 -70.3604 -47.8203 -118.36 -126.63 -123.91v57.7305c37.8096 2.73047 59.54 24.0908 59.54 56.7305h-65.1797z
" />
    <glyph glyph-name="uni013B" unicode="&#x13b;" horiz-adv-x="522" 
d="M231.54 140.54h268.64v-140.54h-420.09v700h151.45v-559.46zM227.27 -156v115.909h132.27v-106.46c0 -70.3604 -47.8096 -118.36 -126.63 -123.91v57.7305c37.8203 2.73047 59.54 24.0908 59.54 56.7305h-65.1797z" />
    <glyph glyph-name="uni0145" unicode="&#x145;" horiz-adv-x="752" 
d="M523.72 700h148.639v-700h-126.64l-317 437.47v-437.47h-148.63v700h136.73l306.9 -426.93v426.93zM319.358 -156v115.909h132.27v-106.46c0 -70.3604 -47.8096 -118.36 -126.63 -123.91v57.7305c37.8203 2.73047 59.54 24.0908 59.54 56.7305h-65.1797z" />
    <glyph glyph-name="uni0156" unicode="&#x156;" horiz-adv-x="661" 
d="M479.77 264.68l154.859 -264.681h-169.18l-136.75 238.91h-97.1602v-238.91h-151.45v700h282.54c140.19 0 244.73 -96.5498 244.73 -231.55c0 -91.5596 -50.1602 -166.409 -127.59 -203.77zM231.539 560.089v-181.27h121.18c63.3701 0 101.19 38.0898 101.19 90.6299
c0 52.3701 -37.8203 90.6396 -101.19 90.6396h-121.18zM274.909 -156.001v115.909h132.27v-106.46c0 -70.3604 -47.8203 -118.36 -126.641 -123.91v57.7305c37.8203 2.73047 59.5508 24.0908 59.5508 56.7305h-65.1797z" />
    <glyph glyph-name="uni0162" unicode="&#x162;" horiz-adv-x="584" 
d="M367.91 0h-34.1807l-7.25977 -29.4004c51.75 -12.46 84.6201 -44.8301 84.6201 -93.1504c0 -63.54 -56.9102 -106 -136.09 -106h-72.0898v73.1797h71.0898c22.6299 0 38.7197 13.7305 38.7197 33.8203c0 19.9102 -16.0898 33.8203 -38.8994 33.8203h-43.3701
l-6.26953 7.4502l18.3496 80.2803h-26.0801v559.45h-194.63v140.55h540.72v-140.55h-194.63v-559.45z" />
    <glyph glyph-name="uni0218" unicode="&#x218;" horiz-adv-x="619" 
d="M312.36 -13.9102c-160.73 0 -271.449 90.2715 -271.449 240.731h152.63c0 -67.6396 55.9102 -100.279 117.82 -100.279c57 0 112.73 30.0898 112.73 82.2803c0 54.2695 -63.8203 69.1797 -139.73 86.8994c-105.54 26 -233.73 56.6396 -233.73 207.46
c0 134.27 98.9102 209.909 253.91 209.909c160.91 0 252.37 -85.9102 252.37 -225.37h-149.64c0 60.2803 -49.7305 88.5498 -106.36 88.5498c-49.0898 0 -98.8203 -20.8203 -98.8203 -66.6406c0 -49.2695 60.8203 -64.1797 134.91 -81.9102
c106.72 -27 240.72 -60.2695 240.72 -217.09c0 -151.18 -120.45 -224.54 -265.36 -224.54zM268.722 -279.548v57.7295c37.8203 2.73047 59.5508 24.0908 59.5508 56.7305h-65.1797v115.91h132.27v-106.46c0 -70.3604 -47.8203 -118.36 -126.641 -123.91z" />
    <glyph glyph-name="uni021A" unicode="&#x21a;" horiz-adv-x="584" 
d="M562.54 700v-140.55h-194.63v-559.45h-151.46v559.45h-194.63v140.55h540.72zM225.63 -156v115.909h132.28v-106.46c0 -70.3604 -47.8203 -118.36 -126.641 -123.91v57.7305c37.8203 2.73047 59.5508 24.0908 59.5508 56.7305h-65.1904z" />
    <glyph glyph-name="K.ss01" horiz-adv-x="655" 
d="M663.54 0h-184.63l-247.37 342.1v-342.1h-151.45v700h151.45v-323.82l229.64 323.82h176.36l-239.86 -336.83z" />
    <glyph glyph-name="K.ss03" horiz-adv-x="655" 
d="M663.54 0h-184.63l-247.37 342.1v-342.1h-151.45v700h151.45v-323.82l229.64 323.82h176.36l-239.86 -336.83z" />
    <glyph glyph-name="K.ss04" horiz-adv-x="655" 
d="M663.54 0h-184.63l-247.37 342.1v-342.1h-151.45v700h151.45v-323.82l229.64 323.82h176.36l-239.86 -336.83z" />
    <glyph glyph-name="a" unicode="a" horiz-adv-x="690" 
d="M510.91 540.82l108.981 -0.00976562v-540h-114.45l-12.5498 48.3096c-46.3701 -40.5996 -106.87 -64.3994 -174.99 -64.3994c-162.45 0 -283.271 122.64 -283.271 286.09c0 162.82 120.82 284.46 283.271 284.46c69.3096 0 130.729 -24.4297 177.409 -66.0498z
M329.802 122.811c84.8203 0 147 63.1797 147 148s-62.1797 148 -147 148s-147.181 -63.3604 -147.181 -148s62.3604 -148 147.181 -148z" />
    <glyph glyph-name="aacute" unicode="&#xe1;" horiz-adv-x="690" 
d="M483.91 751.73l-99.3691 -152h-110.45l54.5498 152h155.27zM510.901 540.82l108.981 -0.00976562v-540h-114.45l-12.5498 48.3096c-46.3701 -40.5996 -106.87 -64.3994 -174.99 -64.3994c-162.45 0 -283.271 122.64 -283.271 286.09
c0 162.82 120.82 284.46 283.271 284.46c69.3096 0 130.729 -24.4297 177.409 -66.0498zM329.793 122.811c84.8203 0 147 63.1797 147 148s-62.1797 148 -147 148s-147.181 -63.3604 -147.181 -148s62.3604 -148 147.181 -148z" />
    <glyph glyph-name="abreve" unicode="&#x103;" horiz-adv-x="690" 
d="M340.64 590.64c-106.82 0 -177.528 64.0898 -177.528 161.09h112.09v-4.63965c0 -38.5498 26.1797 -61.7295 65.4492 -61.7295s62.6299 23.1797 62.6299 61.7295v4.63965h114.91c0 -97 -70.7305 -161.09 -177.551 -161.09zM510.932 540.819l108.981 -0.00976562v-540
h-114.45l-12.5498 48.3096c-46.3701 -40.5996 -106.87 -64.3994 -174.99 -64.3994c-162.45 0 -283.271 122.64 -283.271 286.09c0 162.82 120.82 284.46 283.271 284.46c69.3096 0 130.729 -24.4297 177.409 -66.0498zM329.823 122.81c84.8203 0 147 63.1797 147 148
s-62.1797 148 -147 148s-147.181 -63.3604 -147.181 -148s62.3604 -148 147.181 -148z" />
    <glyph glyph-name="acircumflex" unicode="&#xe2;" horiz-adv-x="690" 
d="M342.02 672.37l-72.4014 -72.6396h-125.18l114.73 152h165.55l115.73 -152h-125.18zM510.888 540.82l108.981 -0.00976562v-540h-114.45l-12.5498 48.3096c-46.3701 -40.5996 -106.87 -64.3994 -174.99 -64.3994c-162.45 0 -283.271 122.64 -283.271 286.09
c0 162.82 120.82 284.46 283.271 284.46c69.3096 0 130.729 -24.4297 177.409 -66.0498zM329.779 122.811c84.8203 0 147 63.1797 147 148s-62.1797 148 -147 148s-147.181 -63.3604 -147.181 -148s62.3604 -148 147.181 -148z" />
    <glyph glyph-name="adieresis" unicode="&#xe4;" horiz-adv-x="690" 
d="M302.27 747.73v-138.18h-154.73v138.18h154.73zM532.72 747.73v-138.18h-154.73v138.18h154.73zM510.899 540.82l108.981 -0.00976562v-540h-114.45l-12.5498 48.3096c-46.3701 -40.5996 -106.87 -64.3994 -174.99 -64.3994c-162.45 0 -283.271 122.64 -283.271 286.09
c0 162.82 120.82 284.46 283.271 284.46c69.3096 0 130.729 -24.4297 177.409 -66.0498zM329.791 122.811c84.8203 0 147 63.1797 147 148s-62.1797 148 -147 148s-147.181 -63.3604 -147.181 -148s62.3604 -148 147.181 -148z" />
    <glyph glyph-name="agrave" unicode="&#xe0;" horiz-adv-x="690" 
d="M405.09 599.73h-110.459l-99.3604 152h155.27zM510.9 540.82l108.981 -0.00976562v-540h-114.45l-12.5498 48.3096c-46.3701 -40.5996 -106.87 -64.3994 -174.99 -64.3994c-162.45 0 -283.271 122.64 -283.271 286.09c0 162.82 120.82 284.46 283.271 284.46
c69.3096 0 130.729 -24.4297 177.409 -66.0498zM329.792 122.811c84.8203 0 147 63.1797 147 148s-62.1797 148 -147 148s-147.181 -63.3604 -147.181 -148s62.3604 -148 147.181 -148z" />
    <glyph glyph-name="amacron" unicode="&#x101;" horiz-adv-x="690" 
d="M496.64 731.91v-114.73h-313v114.73h313zM510.909 540.819l108.981 -0.00976562v-540h-114.45l-12.5498 48.3096c-46.3701 -40.5996 -106.87 -64.3994 -174.99 -64.3994c-162.45 0 -283.271 122.64 -283.271 286.09c0 162.82 120.82 284.46 283.271 284.46
c69.3096 0 130.729 -24.4297 177.409 -66.0498zM329.801 122.81c84.8203 0 147 63.1797 147 148s-62.1797 148 -147 148s-147.181 -63.3604 -147.181 -148s62.3604 -148 147.181 -148z" />
    <glyph glyph-name="aogonek" unicode="&#x105;" horiz-adv-x="690" 
d="M572.63 -133.91c18.8203 0 39.0928 3.82031 58.7324 11.6299v-79.1797c-30.54 -20.54 -66.7305 -29.8203 -100.91 -29.8203c-68.4502 0 -127.82 38 -127.82 108.37c0 57.21 35.4697 108.69 96.7793 147.011l-6.50977 25.0303
c-46.3701 -40.6104 -106.87 -64.4102 -174.99 -64.4102c-162.46 0 -283.28 122.64 -283.28 286.1c0 162.81 120.82 284.449 283.28 284.449c69.2998 0 130.72 -24.4297 177.399 -66.0596l15.5996 51.6104h109v-540v0v-0.820312c-68.46 -15.9102 -107 -47.0898 -107 -85.3701
c0 -34.0898 25.9102 -48.54 59.7197 -48.54zM329.823 122.82c84.8096 0 147 63.1797 147 148c0 84.8096 -62.1904 148 -147 148c-84.8203 0 -147.19 -63.3701 -147.19 -148c0 -84.6396 62.3701 -148 147.19 -148z" />
    <glyph glyph-name="aring" unicode="&#xe5;" horiz-adv-x="690" 
d="M340.64 584.91c-75.3604 0 -126.63 48.46 -126.63 120.46c0 72.1797 51.2695 120.449 126.63 120.449s126.63 -48.2695 126.63 -120.449c0 -72 -51.2695 -120.46 -126.63 -120.46zM340.64 758.46c-31.7305 0 -55.0908 -22.1797 -55.0908 -53.0898
c0 -30.7305 23.3604 -52.9102 55.0908 -52.9102s55.0908 22.1797 55.0908 52.9102c0 30.9102 -23.3604 53.0898 -55.0908 53.0898zM510.909 540.82l108.981 -0.00976562v-540h-114.45l-12.5498 48.3096c-46.3701 -40.5996 -106.87 -64.3994 -174.99 -64.3994
c-162.45 0 -283.271 122.64 -283.271 286.09c0 162.82 120.82 284.46 283.271 284.46c69.3096 0 130.729 -24.4297 177.409 -66.0498zM329.801 122.811c84.8203 0 147 63.1797 147 148s-62.1797 148 -147 148s-147.181 -63.3604 -147.181 -148s62.3604 -148 147.181 -148z
" />
    <glyph glyph-name="atilde" unicode="&#xe3;" horiz-adv-x="690" 
d="M236.18 611.73l-0.0195312 -7.70996h-80.5498v10.54c0 83 42.7305 135.91 115.37 135.91c40.0898 0 65.7295 -16.46 87.5498 -32.5498c16.1797 -12.0898 31.3594 -22.1797 49.8193 -22.1797c21.0898 0 35.6396 16.6396 35.6396 41.3701v9h80.7305v-11
c0 -83.8203 -43.7305 -135.91 -114.551 -135.91c-40.6396 0 -69.2793 19.2695 -93.7295 33.7197c-17 10.0898 -31 19.1797 -44.4502 19.1797c-19.2695 0 -35.8096 -16.6396 -35.8096 -40.3701zM510.891 540.841l108.981 -0.00976562v-540h-114.45l-12.5498 48.3096
c-46.3701 -40.5996 -106.87 -64.3994 -174.99 -64.3994c-162.45 0 -283.271 122.64 -283.271 286.09c0 162.82 120.82 284.46 283.271 284.46c69.3096 0 130.729 -24.4297 177.409 -66.0498zM329.782 122.831c84.8203 0 147 63.1797 147 148s-62.1797 148 -147 148
s-147.181 -63.3604 -147.181 -148s62.3604 -148 147.181 -148z" />
    <glyph glyph-name="ae" unicode="&#xe6;" horiz-adv-x="1065" 
d="M1031.36 269.82c0 -14.46 -0.998047 -27.9102 -2.81836 -41.5498h-411.75c13.3896 -70.71 62.4297 -110 135.029 -110c50.54 0 92.3604 22 114.54 59.1797h153.46c-38.46 -115.27 -139.37 -191.909 -262.28 -191.909c-68.7197 0 -127.739 24.6904 -171.939 66.5
l-4.96973 -52.4102h-90.7197l-5.45996 54.4404c-45.7402 -43.9297 -106.351 -69.1602 -173.181 -69.1602c-157.09 0 -276.64 125.91 -276.64 285.09c0 164.09 121 284.27 276.64 284.27c69.2998 0 129.95 -26.1504 175.08 -70.4102l7.00977 56.5h84.1797l6.25 -54.1904
c44.7197 43.3799 104.689 68.9199 173.749 68.9199c158 0 273.82 -124.46 273.82 -285.27zM751.822 430.63c-66.8203 0 -113.82 -37.7393 -131.261 -101.18h264.73c-20.6104 65.29 -67.96 101.18 -133.47 101.18zM327.632 123.001c83.1904 0 144.19 62.8203 144.19 147
c0 85 -61 147.82 -144.19 147.82c-83 0 -144.18 -63 -144.18 -147.82c0 -84 61.1797 -147 144.18 -147z" />
    <glyph glyph-name="aeacute" unicode="&#x1fd;" horiz-adv-x="1065" 
d="M684.63 751.72l-99.3594 -152h-110.45l54.54 152h155.27zM1031.36 269.819c0 -14.46 -0.998047 -27.9102 -2.81836 -41.5498h-411.75c13.3896 -70.71 62.4297 -110 135.029 -110c50.54 0 92.3604 22 114.54 59.1797h153.46
c-38.46 -115.27 -139.37 -191.909 -262.28 -191.909c-68.7197 0 -127.739 24.6904 -171.939 66.5l-4.96973 -52.4102h-90.7197l-5.45996 54.4404c-45.7402 -43.9297 -106.351 -69.1602 -173.181 -69.1602c-157.09 0 -276.64 125.91 -276.64 285.09
c0 164.09 121 284.27 276.64 284.27c69.2998 0 129.95 -26.1504 175.08 -70.4102l7.00977 56.5h84.1797l6.25 -54.1904c44.7197 43.3799 104.689 68.9199 173.749 68.9199c158 0 273.82 -124.46 273.82 -285.27zM751.822 430.629
c-66.8203 0 -113.82 -37.7393 -131.261 -101.18h264.73c-20.6104 65.29 -67.96 101.18 -133.47 101.18zM327.632 123c83.1904 0 144.19 62.8203 144.19 147c0 85 -61 147.82 -144.19 147.82c-83 0 -144.18 -63 -144.18 -147.82c0 -84 61.1797 -147 144.18 -147z" />
    <glyph glyph-name="b" unicode="b" horiz-adv-x="683" 
d="M364.27 555.27c164.64 0 283.909 -121.641 283.909 -285.28c0 -163.46 -119.27 -285.28 -283.909 -285.28c-65.6104 0 -123.86 22.2197 -169.07 60.4102l-17.2998 -45.1299h-107.82v734.64h146v-223.85c41.71 28.3799 92.2803 44.4902 148.19 44.4902zM352.359 122.809
c84.8203 0 147 63.1895 147 147.189c0 84.8203 -62.1797 148 -147 148s-147.181 -63.3604 -147.181 -148c0 -83.6396 62.3604 -147.189 147.181 -147.189z" />
    <glyph glyph-name="c" unicode="c" horiz-adv-x="625" 
d="M321.36 -15.2695c-162.46 0 -286.73 125.098 -286.73 286.918s123.46 283.641 287.55 283.641c139.82 0 248.36 -88.6396 274.63 -221.55h-145c-23.6396 53.0898 -72.2793 84.2695 -130.459 84.2695c-79.1797 0 -138.729 -63.5498 -138.729 -147.189
s60.5498 -148.819 138.729 -148.819c59 0 105.64 32.8203 130.279 90.5508h147c-25.4502 -135.73 -136 -227.82 -277.27 -227.82z" />
    <glyph glyph-name="cacute" unicode="&#x107;" horiz-adv-x="625" 
d="M254.64 599.73l54.5508 152h155.27l-99.3604 -152h-110.46zM321.37 -15.2695c-162.46 0 -286.73 125.098 -286.73 286.918s123.46 283.641 287.55 283.641c139.82 0 248.36 -88.6396 274.63 -221.55h-145c-23.6396 53.0898 -72.2793 84.2695 -130.459 84.2695
c-79.1797 0 -138.729 -63.5498 -138.729 -147.189s60.5498 -148.819 138.729 -148.819c59 0 105.64 32.8203 130.279 90.5508h147c-25.4502 -135.73 -136 -227.82 -277.27 -227.82z" />
    <glyph glyph-name="ccaron" unicode="&#x10d;" horiz-adv-x="625" 
d="M394 751.73h125.201l-115.73 -152h-165.55l-114.73 152h125.18l72.3799 -72.6396zM321.381 -15.2695c-162.46 0 -286.73 125.098 -286.73 286.918s123.46 283.641 287.55 283.641c139.82 0 248.36 -88.6396 274.63 -221.55h-145
c-23.6396 53.0898 -72.2793 84.2695 -130.459 84.2695c-79.1797 0 -138.729 -63.5498 -138.729 -147.189s60.5498 -148.819 138.729 -148.819c59 0 105.64 32.8203 130.279 90.5508h147c-25.4502 -135.73 -136 -227.82 -277.27 -227.82z" />
    <glyph glyph-name="ccedilla" unicode="&#xe7;" horiz-adv-x="625" 
d="M598.64 212.54c-24.1201 -128.6 -124.629 -218.02 -255.279 -227.06l-5.00977 -17.1602c54.3799 -7.69043 90.9199 -41.5303 90.9199 -93.5c0 -61.9102 -55.4502 -103.36 -129.181 -103.36h-66v74.2695h59.9102c22.3604 0 37.8105 13.2695 37.8105 32.9092
s-15.4502 32.7295 -37.8105 32.7295h-40.0898l-7.5498 9.17969l19.5596 69.2002c-134.45 24.8301 -231.28 139.05 -231.28 281.89c0 161.82 123.46 283.641 287.55 283.641c139.82 0 248.36 -88.6396 274.63 -221.55h-145
c-23.6396 53.0898 -72.2793 84.2695 -130.459 84.2695c-79.1797 0 -138.729 -63.5498 -138.729 -147.189s60.5498 -148.819 138.729 -148.819c59 0 105.64 32.8203 130.279 90.5508h147z" />
    <glyph glyph-name="ccircumflex" unicode="&#x109;" horiz-adv-x="625" 
d="M521 599.73h-125.201l-73.25 72.6396l-72.3799 -72.6396h-125.18l114.73 152h165.55zM321.349 -15.2695c-162.46 0 -286.73 125.098 -286.73 286.918s123.46 283.641 287.55 283.641c139.82 0 248.36 -88.6396 274.63 -221.55h-145
c-23.6396 53.0898 -72.2793 84.2695 -130.459 84.2695c-79.1797 0 -138.729 -63.5498 -138.729 -147.189s60.5498 -148.819 138.729 -148.819c59 0 105.64 32.8203 130.279 90.5508h147c-25.4502 -135.73 -136 -227.82 -277.27 -227.82z" />
    <glyph glyph-name="cdotaccent" unicode="&#x10b;" horiz-adv-x="625" 
d="M248.46 609.54v138.18h145.46v-138.18h-145.46zM321.37 -15.2803c-162.46 0 -286.73 125.098 -286.73 286.918s123.46 283.641 287.55 283.641c139.82 0 248.36 -88.6396 274.63 -221.55h-145c-23.6396 53.0898 -72.2793 84.2695 -130.459 84.2695
c-79.1797 0 -138.729 -63.5498 -138.729 -147.189s60.5498 -148.819 138.729 -148.819c59 0 105.64 32.8203 130.279 90.5508h147c-25.4502 -135.73 -136 -227.82 -277.27 -227.82z" />
    <glyph glyph-name="d" unicode="d" horiz-adv-x="683" 
d="M466.73 734.64l146.001 -0.0078125v-734.64h-107.82l-17.2402 44.9697c-45.3203 -38.5703 -103.67 -61.0703 -169.12 -61.0703c-163.82 0 -283.91 122.64 -283.91 286.1c0 163.64 120.09 285.279 283.91 285.279c55.7695 0 106.39 -16.2002 148.18 -44.7305v224.1z
M330.462 121.992c84.8203 0 147.181 63.54 147.181 148c0 84.6396 -62.3604 148 -147.181 148s-147 -63.1797 -147 -148s62.1797 -148 147 -148z" />
    <glyph glyph-name="eth" unicode="&#xf0;" horiz-adv-x="645" 
d="M414.54 712.9c121.53 -77.7598 183.711 -217.212 183.821 -400.542c0 -202.73 -107.36 -327.45 -284.82 -327.45c-168.36 0 -278.721 109 -278.721 272.36c0 153.82 107.63 260.82 261.18 260.82c55.8096 0 106.97 -17.54 147.52 -53.7598
c-10.7002 70.2002 -56.2598 123.12 -121.72 155.84l-90.3496 -90.3496l-57.1797 52.9004l65.8799 65.6602c-30.54 6.66016 -63.25 10.0703 -97.2402 10.0703v124c75.4004 0 141.66 -11.3896 198.62 -33.04l69.0996 68.8604l56.1904 -53.0898zM313.541 118.998
c79.6396 0 138 59.1787 138 139.269c-0.179688 80.4502 -58.7197 139.271 -138 139.271c-79.8203 0 -138.181 -59.1797 -138.181 -139.27s58.3604 -139.27 138.181 -139.27z" />
    <glyph glyph-name="dcaron" unicode="&#x10f;" horiz-adv-x="738" 
d="M466.73 510.54l0.000976562 224.092h146v-734.64h-107.82l-17.2402 44.9697c-45.3203 -38.5703 -103.67 -61.0703 -169.12 -61.0703c-163.82 0 -283.91 122.64 -283.91 286.1c0 163.64 120.09 285.279 283.91 285.279c55.7695 0 106.39 -16.2002 148.18 -44.7305z
M653.191 734.632l132.27 -0.0107422v-106.45c0 -70.3604 -47.8203 -118.36 -126.641 -123.91v57.7305c37.8203 2.73047 59.5508 24.0908 59.5508 56.7305h-65.1797v115.91zM330.461 121.981c84.8203 0 147.181 63.54 147.181 148c0 84.6396 -62.3604 148 -147.181 148
s-147 -63.1797 -147 -148s62.1797 -148 147 -148z" />
    <glyph glyph-name="dcroat" unicode="&#x111;" horiz-adv-x="683" 
d="M682.73 686.18l0.000976562 -95.8379h-70v-590.36h-107.82l-17.2402 44.9697c-45.3203 -38.5703 -103.67 -61.0703 -169.12 -61.0703c-163.82 0 -283.91 122.64 -283.91 286.1c0 163.64 120.09 285.279 283.91 285.279c55.7695 0 106.39 -16.2002 148.18 -44.7305
v79.8301h-178.18v95.8203h178.18v48.4502h146v-48.4502h70zM330.462 121.981c84.8203 0 147.181 63.54 147.181 148c0 84.6396 -62.3604 148 -147.181 148s-147 -63.1797 -147 -148s62.1797 -148 147 -148z" />
    <glyph glyph-name="e" unicode="e" horiz-adv-x="628" 
d="M594.27 271.91c0 -14.2695 -1.01074 -28.5391 -2.83105 -42.8086h-408.69c12.6904 -73.7002 61.1406 -114.28 131.961 -114.28c50.7305 0 92.3701 24 114.55 62.6396h153.45c-39.2695 -117.73 -142.63 -192.73 -267.99 -192.73c-159.45 0 -280.09 123.45 -280.09 285.271
c0 162.64 119.82 285.279 280.09 285.279c165.82 0 279.551 -127.82 279.551 -283.37zM314.709 430.641c-65 0 -111.15 -37.9092 -128.11 -101.819h261.68c-20.6396 66.0195 -68.0498 101.819 -133.569 101.819z" />
    <glyph glyph-name="eacute" unicode="&#xe9;" horiz-adv-x="628" 
d="M457.64 751.73l-99.3496 -152h-110.46l54.54 152h155.27zM594.29 271.91c0 -14.2695 -1.01074 -28.5391 -2.83105 -42.8086h-408.69c12.6904 -73.7002 61.1406 -114.28 131.961 -114.28c50.7305 0 92.3701 24 114.55 62.6396h153.45
c-39.2695 -117.73 -142.63 -192.73 -267.99 -192.73c-159.45 0 -280.09 123.45 -280.09 285.271c0 162.64 119.82 285.279 280.09 285.279c165.82 0 279.551 -127.82 279.551 -283.37zM314.729 430.641c-65 0 -111.15 -37.9092 -128.11 -101.819h261.68
c-20.6396 66.0195 -68.0498 101.819 -133.569 101.819z" />
    <glyph glyph-name="ebreve" unicode="&#x115;" horiz-adv-x="628" 
d="M314.36 590.64c-106.82 0 -177.528 64.0898 -177.528 161.09h112.09v-4.63965c0 -38.5498 26.1797 -61.7295 65.4492 -61.7295s62.6299 23.1797 62.6299 61.7295v4.63965h114.91c0 -97 -70.7305 -161.09 -177.551 -161.09zM594.293 271.909
c0 -14.2695 -1.01074 -28.5391 -2.83105 -42.8086h-408.69c12.6904 -73.7002 61.1406 -114.28 131.961 -114.28c50.7305 0 92.3701 24 114.55 62.6396h153.45c-39.2695 -117.73 -142.63 -192.73 -267.99 -192.73c-159.45 0 -280.09 123.45 -280.09 285.271
c0 162.64 119.82 285.279 280.09 285.279c165.82 0 279.551 -127.82 279.551 -283.37zM314.732 430.64c-65 0 -111.15 -37.9092 -128.11 -101.819h261.68c-20.6396 66.0195 -68.0498 101.819 -133.569 101.819z" />
    <glyph glyph-name="ecaron" unicode="&#x11b;" horiz-adv-x="628" 
d="M396.64 599.73h-165.528l-114.73 152h125.18l72.3799 -72.6396l73.25 72.6396h125.18zM594.291 271.91c0 -14.2695 -1.01074 -28.5391 -2.83105 -42.8086h-408.69c12.6904 -73.7002 61.1406 -114.28 131.961 -114.28c50.7305 0 92.3701 24 114.55 62.6396h153.45
c-39.2695 -117.73 -142.63 -192.73 -267.99 -192.73c-159.45 0 -280.09 123.45 -280.09 285.271c0 162.64 119.82 285.279 280.09 285.279c165.82 0 279.551 -127.82 279.551 -283.37zM314.73 430.641c-65 0 -111.15 -37.9092 -128.11 -101.819h261.68
c-20.6396 66.0195 -68.0498 101.819 -133.569 101.819z" />
    <glyph glyph-name="ecircumflex" unicode="&#xea;" horiz-adv-x="628" 
d="M315.75 672.37l-72.4014 -72.6396h-125.18l114.73 152h165.55l115.73 -152h-125.18zM594.259 271.91c0 -14.2695 -1.01074 -28.5391 -2.83105 -42.8086h-408.69c12.6904 -73.7002 61.1406 -114.28 131.961 -114.28c50.7305 0 92.3701 24 114.55 62.6396h153.45
c-39.2695 -117.73 -142.63 -192.73 -267.99 -192.73c-159.45 0 -280.09 123.45 -280.09 285.271c0 162.64 119.82 285.279 280.09 285.279c165.82 0 279.551 -127.82 279.551 -283.37zM314.698 430.641c-65 0 -111.15 -37.9092 -128.11 -101.819h261.68
c-20.6396 66.0195 -68.0498 101.819 -133.569 101.819z" />
    <glyph glyph-name="edieresis" unicode="&#xeb;" horiz-adv-x="628" 
d="M276 747.73v-138.18h-154.73v138.18h154.73zM506.46 747.73v-138.18h-154.73v138.18h154.73zM594.28 271.911c0 -14.2695 -1.01074 -28.5391 -2.83105 -42.8086h-408.69c12.6904 -73.7002 61.1406 -114.28 131.961 -114.28c50.7305 0 92.3701 24 114.55 62.6396h153.45
c-39.2695 -117.73 -142.63 -192.73 -267.99 -192.73c-159.45 0 -280.09 123.45 -280.09 285.271c0 162.64 119.82 285.279 280.09 285.279c165.82 0 279.551 -127.82 279.551 -283.37zM314.72 430.642c-65 0 -111.15 -37.9092 -128.11 -101.819h261.68
c-20.6396 66.0195 -68.0498 101.819 -133.569 101.819z" />
    <glyph glyph-name="edotaccent" unicode="&#x117;" horiz-adv-x="628" 
d="M387.09 747.73v-138.18h-145.46v138.18h145.46zM594.27 271.911c0 -14.2695 -1.01074 -28.5391 -2.83105 -42.8086h-408.69c12.6904 -73.7002 61.1406 -114.28 131.961 -114.28c50.7305 0 92.3701 24 114.55 62.6396h153.45
c-39.2695 -117.73 -142.63 -192.73 -267.99 -192.73c-159.45 0 -280.09 123.45 -280.09 285.271c0 162.64 119.82 285.279 280.09 285.279c165.82 0 279.551 -127.82 279.551 -283.37zM314.709 430.642c-65 0 -111.15 -37.9092 -128.11 -101.819h261.68
c-20.6396 66.0195 -68.0498 101.819 -133.569 101.819z" />
    <glyph glyph-name="egrave" unicode="&#xe8;" horiz-adv-x="628" 
d="M378.82 599.73h-110.459l-99.3604 152h155.27zM594.271 271.91c0 -14.2695 -1.01074 -28.5391 -2.83105 -42.8086h-408.69c12.6904 -73.7002 61.1406 -114.28 131.961 -114.28c50.7305 0 92.3701 24 114.55 62.6396h153.45
c-39.2695 -117.73 -142.63 -192.73 -267.99 -192.73c-159.45 0 -280.09 123.45 -280.09 285.271c0 162.64 119.82 285.279 280.09 285.279c165.82 0 279.551 -127.82 279.551 -283.37zM314.711 430.641c-65 0 -111.15 -37.9092 -128.11 -101.819h261.68
c-20.6396 66.0195 -68.0498 101.819 -133.569 101.819z" />
    <glyph glyph-name="emacron" unicode="&#x113;" horiz-adv-x="628" 
d="M470.36 731.91v-114.73h-313v114.73h313zM594.271 271.91c0 -14.2695 -1.01074 -28.5391 -2.83105 -42.8086h-408.69c12.6904 -73.7002 61.1406 -114.28 131.961 -114.28c50.7305 0 92.3701 24 114.55 62.6396h153.45c-39.2695 -117.73 -142.63 -192.73 -267.99 -192.73
c-159.45 0 -280.09 123.45 -280.09 285.271c0 162.64 119.82 285.279 280.09 285.279c165.82 0 279.551 -127.82 279.551 -283.37zM314.71 430.641c-65 0 -111.15 -37.9092 -128.11 -101.819h261.68c-20.6396 66.0195 -68.0498 101.819 -133.569 101.819z" />
    <glyph glyph-name="eogonek" unicode="&#x119;" horiz-adv-x="628" 
d="M594.63 271.91c0 -14.8203 -0.996094 -29.6416 -2.99609 -43.6416h-411.69c13.6797 -71.1699 64.8594 -108.55 136.779 -108.55c50.5498 0 91.1895 22.1904 112.729 57.7305h153.46c-22.7305 -74.1797 -75.6406 -119.449 -126.82 -157.27
c-44.2695 -33.46 -77.5498 -64.5498 -77.5498 -103.55c0 -34.0898 24.5498 -50.54 59.7295 -50.54c18 0 39.2695 3.82031 59.5498 13.2705v-79c-28.5498 -21.1797 -65.5498 -31.6396 -99.9102 -31.6396c-82.2803 0 -128.641 47.5498 -128.641 106.55
c0 36.2998 17.9102 78.3193 53.5498 112.909h-6.09961c-160.45 0 -281.9 122 -281.9 282.82c0 159.82 120.63 280.82 281.899 280.82c161.37 0 277.91 -121.46 277.91 -279.91zM316.724 425.719c-65.5898 0 -115.601 -34.2803 -132.15 -94.4502h262.41
c-19.9297 59.4697 -65.4697 94.4502 -130.26 94.4502z" />
    <glyph glyph-name="f" unicode="f" horiz-adv-x="415" 
d="M400.73 532.73l0.0107422 -120.351h-135.82v-412.36h-146v412.36h-93.5498v120.36h94.3604v48.9102c0 103.36 57.9102 169.54 171.36 169.54h108.64v-114.91h-79.3604c-38.46 0 -59.2803 -19.8203 -59.2803 -58.2803v-45.2695h139.64z" />
    <glyph glyph-name="g" unicode="g" horiz-adv-x="671" 
d="M506.09 540l94.5391 -0.0117188v-477.27c0 -169.09 -105.09 -272.63 -275.82 -272.63c-146.27 0 -250.27 74.9102 -275.18 198.271h145.18c16.46 -48.6396 73.6396 -73.3701 127.55 -73.3701c73.7305 0 135.091 47.7305 135.091 126.73v20.0801
c-42.96 -30.46 -95.9199 -48.0801 -154.36 -48.0801c-150.82 0 -268.46 118.46 -268.46 270.28c0 151 117.64 271.27 268.46 271.27c70.3604 0 132.841 -25.8096 179.461 -68.8799zM320.449 144.258c79.6396 0 137.639 58.8203 137.639 139.73
c0 80.2695 -57.1797 139.09 -137.63 139.09c-79.6396 0 -137.819 -59 -137.819 -139.09c0 -80.7305 57.3604 -139.73 137.811 -139.73z" />
    <glyph glyph-name="gbreve" unicode="&#x11f;" horiz-adv-x="671" 
d="M319.36 590.64c-106.82 0 -177.528 64.0898 -177.528 161.09h112.09v-4.63965c0 -38.5498 26.1797 -61.7295 65.4492 -61.7295s62.6299 23.1797 62.6299 61.7295v4.63965h114.91c0 -97 -70.7305 -161.09 -177.551 -161.09zM506.113 540l94.5391 -0.0117188v-477.27
c0 -169.09 -105.09 -272.63 -275.82 -272.63c-146.27 0 -250.27 74.9102 -275.18 198.271h145.18c16.46 -48.6396 73.6396 -73.3701 127.55 -73.3701c73.7305 0 135.091 47.7305 135.091 126.73v20.0801c-42.96 -30.46 -95.9199 -48.0801 -154.36 -48.0801
c-150.82 0 -268.46 118.46 -268.46 270.28c0 151 117.64 271.27 268.46 271.27c70.3604 0 132.841 -25.8096 179.461 -68.8799zM320.473 144.258c79.6396 0 137.639 58.8203 137.639 139.73c0 80.2695 -57.1797 139.09 -137.63 139.09
c-79.6396 0 -137.819 -59 -137.819 -139.09c0 -80.7305 57.3604 -139.73 137.811 -139.73z" />
    <glyph glyph-name="gcircumflex" unicode="&#x11d;" horiz-adv-x="671" 
d="M320.75 672.37l-72.4014 -72.6396h-125.18l114.73 152h165.55l115.73 -152h-125.18zM506.079 540l94.5391 -0.0117188v-477.27c0 -169.09 -105.09 -272.63 -275.82 -272.63c-146.27 0 -250.27 74.9102 -275.18 198.271h145.18
c16.46 -48.6396 73.6396 -73.3701 127.55 -73.3701c73.7305 0 135.091 47.7305 135.091 126.73v20.0801c-42.96 -30.46 -95.9199 -48.0801 -154.36 -48.0801c-150.82 0 -268.46 118.46 -268.46 270.28c0 151 117.64 271.27 268.46 271.27
c70.3604 0 132.841 -25.8096 179.461 -68.8799zM320.438 144.258c79.6396 0 137.639 58.8203 137.639 139.73c0 80.2695 -57.1797 139.09 -137.63 139.09c-79.6396 0 -137.819 -59 -137.819 -139.09c0 -80.7305 57.3604 -139.73 137.811 -139.73z" />
    <glyph glyph-name="gdotaccent" unicode="&#x121;" horiz-adv-x="671" 
d="M392.09 747.73v-138.18h-145.46v138.18h145.46zM506.09 540.011l94.5391 -0.0117188v-477.27c0 -169.09 -105.09 -272.63 -275.82 -272.63c-146.27 0 -250.27 74.9102 -275.18 198.271h145.18c16.46 -48.6396 73.6396 -73.3701 127.55 -73.3701
c73.7305 0 135.091 47.7305 135.091 126.73v20.0801c-42.96 -30.46 -95.9199 -48.0801 -154.36 -48.0801c-150.82 0 -268.46 118.46 -268.46 270.28c0 151 117.64 271.27 268.46 271.27c70.3604 0 132.841 -25.8096 179.461 -68.8799zM320.449 144.269
c79.6396 0 137.639 58.8203 137.639 139.73c0 80.2695 -57.1797 139.09 -137.63 139.09c-79.6396 0 -137.819 -59 -137.819 -139.09c0 -80.7305 57.3604 -139.73 137.811 -139.73z" />
    <glyph glyph-name="h" unicode="h" horiz-adv-x="641" 
d="M379.27 552.82c122.27 0 198.189 -87.1895 198.189 -224.729v-328.09h-146v303.63c0 80.8203 -28.54 121 -94.1797 121c-72.8203 0 -121.181 -53.0898 -121.181 -140.81v-283.82h-146v734.63h146v-244.73c41 39.0195 98.6904 62.9199 163.171 62.9199z" />
    <glyph glyph-name="hbar" unicode="&#x127;" horiz-adv-x="641" 
d="M379.27 552.82c122.27 0 198.189 -87.1904 198.189 -224.73v-328.09h-146v303.63c0 80.8203 -28.54 121 -94.1797 121c-72.8203 0 -121.181 -53.0898 -121.181 -140.81v-283.82h-146v590.36h-89.7305v95.8203h89.7305v48.4502h146v-48.4502h158.45v-95.8203h-158.45
v-100.46c41 39.0195 98.6904 62.9199 163.171 62.9199z" />
    <glyph glyph-name="hcircumflex" unicode="&#x125;" horiz-adv-x="641" 
d="M142.52 867.27l-72.25 -67.8203h-125.18l114.73 142h165.54l115.55 -142h-125.19zM379.27 552.819c122.27 0 198.189 -87.1895 198.189 -224.729v-328.09h-146v303.63c0 80.8203 -28.54 121 -94.1797 121c-72.8203 0 -121.181 -53.0898 -121.181 -140.81v-283.82h-146
v734.63h146v-244.73c41 39.0195 98.6904 62.9199 163.171 62.9199z" />
    <glyph glyph-name="i" unicode="i" horiz-adv-x="286" 
d="M70.3604 612v135.73h145.45v-135.73h-145.45zM70.0908 0v540h146v-540h-146z" />
    <glyph glyph-name="dotlessi" unicode="&#x131;" horiz-adv-x="286" 
d="M70.0898 0v540h146v-540h-146z" />
    <glyph glyph-name="iacute" unicode="&#xed;" horiz-adv-x="286" 
d="M80.1797 599.72l38.999 152h152.45l-79.1797 -152h-112.27zM70.0889 -0v540h146v-540h-146z" />
    <glyph glyph-name="ibreve" unicode="&#x12d;" horiz-adv-x="286" 
d="M144.09 590.63c-100.82 0 -167.55 64.0898 -167.55 161.09h112.09v-4.62988c0 -38.5498 22.1904 -61.7295 55.46 -61.7295s52.6299 23.1797 52.6299 61.7295v4.62988h114.91c0 -97 -66.7197 -161.09 -167.54 -161.09zM70.0908 -0v540h146v-540h-146z" />
    <glyph glyph-name="icircumflex" unicode="&#xee;" horiz-adv-x="286" 
d="M142.59 671.19l-58.7705 -71.4697h-118.55l103.82 152h147.18l104.64 -152h-119.55zM70.0889 0.000976562v540h146v-540h-146z" />
    <glyph glyph-name="idieresis" unicode="&#xef;" horiz-adv-x="286" 
d="M-10.5498 609.54v138.18h131.27v-138.18h-131.27zM186.54 609.359v138.18h131.28v-138.18h-131.28zM70.0898 -0.000976562v540h146v-540h-146z" />
    <glyph glyph-name="igrave" unicode="&#xec;" horiz-adv-x="286" 
d="M196.09 599.72h-112.27l-79.1904 152h152.46zM70.0898 -0v540h146v-540h-146z" />
    <glyph glyph-name="ij" unicode="&#x133;" horiz-adv-x="604" 
d="M70.3604 612v135.73h145.45v-135.73h-145.45zM388.721 612v135.73h145.46v-135.73h-145.46zM70.0811 0v540h146v-540h-146zM261.721 -194.64l0.0107422 133.92h47.0898c52.2695 0 79.4492 27.3604 79.4492 79.6299v521.09h146v-532.18
c0 -118.82 -83.6396 -202.46 -202.64 -202.46h-69.9102z" />
    <glyph glyph-name="imacron" unicode="&#x12b;" horiz-adv-x="286" 
d="M10.2695 617.18v114.73h265.64v-114.73h-265.64zM70.0898 0v540h146v-540h-146z" />
    <glyph glyph-name="iogonek" unicode="&#x12f;" horiz-adv-x="286" 
d="M215.82 747.72v-138.18h-145.46v138.18h145.46zM169 -133.91c18.8203 0 39.0898 3.82129 58.7197 11.6309v-79.1797c-30.54 -20.54 -66.7197 -29.8203 -100.899 -29.8203c-68.46 0 -127.82 38 -127.82 108.37c0 47.0596 25.6699 91.1494 71.0898 126.789v536.12h146
v-516.4l0.179688 -23.5996c-68.4502 -15.9102 -107 -47.0898 -107 -85.3701c0 -34.0898 25.9102 -48.54 59.7305 -48.54z" />
    <glyph glyph-name="itilde" unicode="&#x129;" horiz-adv-x="286" 
d="M208.36 598.63c-33.1797 0 -62.0898 18.6406 -85.54 34.0908c-16.8203 10.2803 -30.6406 19.5498 -42.2803 19.5498c-18.54 0 -29.9102 -15.1797 -29.9102 -37.2695v-10.46h-81.2695v12c0 82.2803 37.6396 135 109.27 135c36.8203 0 61.46 -17.8203 82.2803 -33.2705
c15.8096 -12.0898 29 -22.1797 44.7197 -22.1797c19.1904 0 29.7305 15.1797 29.7305 38.4492v11.5498h81.2695v-12.46c0 -84 -39.1797 -135 -108.27 -135zM70.0908 0.000976562v540h146v-540h-146z" />
    <glyph glyph-name="j" unicode="j" horiz-adv-x="298" 
d="M82.5498 612v135.73h145.45v-135.73h-145.45zM-44.4502 -194.63l0.0107422 133.92h47.0898c52.2695 0 79.4492 27.3604 79.4492 79.6299v521.09h146v-532.18c0 -118.82 -83.6396 -202.46 -202.64 -202.46h-69.9102z" />
    <glyph glyph-name="jcircumflex" unicode="&#x135;" horiz-adv-x="298" 
d="M152.59 671.19l-58.7705 -71.4697h-118.55l103.82 152h147.18l104.64 -152h-119.55zM82.0889 24.2705l0.000976562 515.729h146v-526.46c0 -119 -83.8203 -202.63 -202.641 -202.63h-69.7305v133.91h46.7305c52.2695 0 79.6396 27.3604 79.6396 79.4502z" />
    <glyph glyph-name="k" unicode="k" horiz-adv-x="574" 
d="M579.09 0h-176.909l-172.82 258.33v-258.33h-146v734.63h146v-434.57l162.09 239.94h168.18l-182.66 -257.15z" />
    <glyph glyph-name="kgreenlandic" unicode="&#x138;" horiz-adv-x="560" 
d="M565.82 0h-176.101l-173.63 258.4v-258.4h-146v540h146v-240.09l163.73 240.09h166.54l-183.03 -258.39z" />
    <glyph glyph-name="l" unicode="l" horiz-adv-x="286" 
d="M70.0898 0v734.63h146v-734.63h-146z" />
    <glyph glyph-name="lacute" unicode="&#x13a;" horiz-adv-x="286" 
d="M85.1797 802l55.4502 142h155.28l-100.28 -142h-110.45zM70.0898 0v734.63h146v-734.63h-146z" />
    <glyph glyph-name="lcaron" unicode="&#x13e;" horiz-adv-x="286" 
d="M70.0898 0v734.63h146v-734.63h-146zM269.45 504.27v57.7305c37.8203 2.71973 59.5508 24.0898 59.5508 56.7197h-65.1797v115.91h132.27v-106.45c0 -70.3604 -47.8203 -118.36 -126.641 -123.91z" />
    <glyph glyph-name="ldot" unicode="&#x140;" horiz-adv-x="428" 
d="M70.0898 0v734.63h146v-734.63h-146zM283.82 278.82v156.18h154.72v-156.18h-154.72z" />
    <glyph glyph-name="lslash" unicode="&#x142;" horiz-adv-x="286" 
d="M295.45 568.72v-131.81l-79.3604 -43.5v-393.41h-146v313.4l-79.3701 -43.4902v131.81l79.3701 43.5v289.41h146v-209.4z" />
    <glyph glyph-name="m" unicode="m" horiz-adv-x="938" 
d="M684.45 552.82c111.73 0 190.181 -87.6406 190.181 -214.19v-338.63h-146v314.54c0 72.0898 -28.2695 110.09 -81.1797 110.09c-65.1797 0 -103.819 -48 -103.819 -132.54v-292.09h-142.36v314.54c0 72.0898 -27.4502 110.09 -79.7305 110.09
c-66 0 -105.45 -48 -105.45 -132.54v-292.09h-146v540h102l27.3701 -66.9502c38.3301 48.3604 97.4805 79.7705 161.08 79.7705c68.6797 0 125.449 -32.1299 156.759 -86.4102c36.9004 52.4502 98.4307 86.4102 167.15 86.4102z" />
    <glyph glyph-name="n" unicode="n" horiz-adv-x="641" 
d="M377.63 552.82c123.09 0 199.819 -88.8184 199.819 -225.549v-327.27h-146v303.63c0 81.6396 -31 121 -94.1797 121c-75.2695 0 -121.18 -53.9102 -121.18 -140.811v-283.82h-146v540h100.18l28.46 -66.75c40.8604 48.6797 105.41 79.5693 178.9 79.5693z" />
    <glyph glyph-name="nacute" unicode="&#x144;" horiz-adv-x="641" 
d="M474.72 751.72l-99.3594 -152h-110.45l54.54 152h155.27zM377.63 552.819c123.09 0 199.819 -88.8184 199.819 -225.549v-327.27h-146v303.63c0 81.6396 -31 121 -94.1797 121c-75.2695 0 -121.18 -53.9102 -121.18 -140.811v-283.82h-146v540h100.18l28.46 -66.75
c40.8604 48.6797 105.41 79.5693 178.9 79.5693z" />
    <glyph glyph-name="ncaron" unicode="&#x148;" horiz-adv-x="641" 
d="M413.73 599.72h-165.549l-114.73 152h125.18l72.3896 -72.6396l73.25 72.6396h125.18zM377.632 552.819c123.09 0 199.819 -88.8184 199.819 -225.549v-327.27h-146v303.63c0 81.6396 -31 121 -94.1797 121c-75.2695 0 -121.18 -53.9102 -121.18 -140.811v-283.82h-146
v540h100.18l28.46 -66.75c40.8604 48.6797 105.41 79.5693 178.9 79.5693z" />
    <glyph glyph-name="eng" unicode="&#x14b;" horiz-adv-x="641" 
d="M376.82 551.82c123.9 0 200.631 -87.1904 200.631 -225.551v-322c0 -119.82 -78.0898 -198.91 -197.91 -198.91h-46.9102v129.82h24.9102c47.2803 0 73.9102 27.6396 73.9102 74.9092v293.36c0 81.8203 -31 121.181 -94.1797 121.181
c-75.2695 0 -121.18 -54.0898 -121.18 -141v-283.63h-146v540h100.18l28.96 -67.9297c40.8096 48.8604 104.909 79.75 177.589 79.75z" />
    <glyph glyph-name="ntilde" unicode="&#xf1;" horiz-adv-x="641" 
d="M227 611.72l0.000976562 -7.71973h-80.5498v10.54c0 83 42.7305 135.91 115.37 135.91c40.0898 0 65.7197 -16.4502 87.54 -32.54c16.1797 -12.0898 31.3594 -22.1895 49.8193 -22.1895c21.0898 0 35.6396 16.6396 35.6396 41.3701v9h80.7197v-11
c0 -83.8203 -43.7197 -135.91 -114.54 -135.91c-40.6396 0 -69.2793 19.2695 -93.7295 33.7295c-17 10.0898 -31 19.1797 -44.4502 19.1797c-19.2803 0 -35.8203 -16.6396 -35.8203 -40.3701zM377.631 552.82c123.09 0 199.819 -88.8184 199.819 -225.549v-327.27h-146
v303.63c0 81.6396 -31 121 -94.1797 121c-75.2695 0 -121.18 -53.9102 -121.18 -140.811v-283.82h-146v540h100.18l28.46 -66.75c40.8604 48.6797 105.41 79.5693 178.9 79.5693z" />
    <glyph glyph-name="o" unicode="o" horiz-adv-x="653" 
d="M326.55 -15.2695c-167.27 0 -291.909 122.449 -291.909 285.27c0 163.82 124.64 285.28 291.909 285.28c166.45 0 291.91 -121.64 291.91 -285.279c0 -162.82 -125.46 -285.271 -291.91 -285.271zM326.55 121.999c84.1797 0 143.91 60.54 143.91 148
c0 87.4502 -59.7305 148 -143.91 148s-143.91 -60.5498 -143.91 -148c0 -87.46 59.7305 -148 143.91 -148z" />
    <glyph glyph-name="oacute" unicode="&#xf3;" horiz-adv-x="653" 
d="M259.18 599.73l54.541 152h155.27l-99.3604 -152h-110.45zM326.541 -15.2695c-167.27 0 -291.909 122.449 -291.909 285.27c0 163.82 124.64 285.28 291.909 285.28c166.45 0 291.91 -121.64 291.91 -285.279c0 -162.82 -125.46 -285.271 -291.91 -285.271z
M326.541 121.999c84.1797 0 143.91 60.54 143.91 148c0 87.4502 -59.7305 148 -143.91 148s-143.91 -60.5498 -143.91 -148c0 -87.46 59.7305 -148 143.91 -148z" />
    <glyph glyph-name="obreve" unicode="&#x14f;" horiz-adv-x="653" 
d="M325.73 590.64c-106.82 0 -177.528 64.0898 -177.528 161.09h112.09v-4.63965c0 -38.5498 26.1797 -61.7295 65.4492 -61.7295s62.6299 23.1797 62.6299 61.7295v4.63965h114.91c0 -97 -70.7305 -161.09 -177.551 -161.09zM326.573 -15.2705
c-167.27 0 -291.909 122.449 -291.909 285.27c0 163.82 124.64 285.28 291.909 285.28c166.45 0 291.91 -121.64 291.91 -285.279c0 -162.82 -125.46 -285.271 -291.91 -285.271zM326.573 121.998c84.1797 0 143.91 60.54 143.91 148c0 87.4502 -59.7305 148 -143.91 148
s-143.91 -60.5498 -143.91 -148c0 -87.46 59.7305 -148 143.91 -148z" />
    <glyph glyph-name="ocircumflex" unicode="&#xf4;" horiz-adv-x="653" 
d="M525.54 599.73h-125.201l-73.25 72.6396l-72.3799 -72.6396h-125.18l114.73 152h165.55zM326.519 -15.2695c-167.27 0 -291.909 122.449 -291.909 285.27c0 163.82 124.64 285.28 291.909 285.28c166.45 0 291.91 -121.64 291.91 -285.279
c0 -162.82 -125.46 -285.271 -291.91 -285.271zM326.519 121.999c84.1797 0 143.91 60.54 143.91 148c0 87.4502 -59.7305 148 -143.91 148s-143.91 -60.5498 -143.91 -148c0 -87.46 59.7305 -148 143.91 -148z" />
    <glyph glyph-name="odieresis" unicode="&#xf6;" horiz-adv-x="653" 
d="M132.64 609.54v138.18h154.73v-138.18h-154.73zM363.1 609.54v138.18h154.73v-138.18h-154.73zM326.55 -15.2803c-167.27 0 -291.909 122.449 -291.909 285.27c0 163.82 124.64 285.28 291.909 285.28c166.45 0 291.91 -121.64 291.91 -285.279
c0 -162.82 -125.46 -285.271 -291.91 -285.271zM326.55 121.988c84.1797 0 143.91 60.54 143.91 148c0 87.4502 -59.7305 148 -143.91 148s-143.91 -60.5498 -143.91 -148c0 -87.46 59.7305 -148 143.91 -148z" />
    <glyph glyph-name="ograve" unicode="&#xf2;" horiz-adv-x="653" 
d="M390.18 599.73h-110.459l-99.3604 152h155.27zM326.541 -15.2695c-167.27 0 -291.909 122.449 -291.909 285.27c0 163.82 124.64 285.28 291.909 285.28c166.45 0 291.91 -121.64 291.91 -285.279c0 -162.82 -125.46 -285.271 -291.91 -285.271zM326.541 121.999
c84.1797 0 143.91 60.54 143.91 148c0 87.4502 -59.7305 148 -143.91 148s-143.91 -60.5498 -143.91 -148c0 -87.46 59.7305 -148 143.91 -148z" />
    <glyph glyph-name="ohungarumlaut" unicode="&#x151;" horiz-adv-x="653" 
d="M166.09 599.73l46.2695 152h145.36l-86.4502 -152h-105.18zM363.72 599.73l75.1895 152h139.91l-108.64 -152h-106.46zM326.549 -15.2695c-167.27 0 -291.909 122.449 -291.909 285.27c0 163.82 124.64 285.28 291.909 285.28c166.45 0 291.91 -121.64 291.91 -285.279
c0 -162.82 -125.46 -285.271 -291.91 -285.271zM326.549 121.999c84.1797 0 143.91 60.54 143.91 148c0 87.4502 -59.7305 148 -143.91 148s-143.91 -60.5498 -143.91 -148c0 -87.46 59.7305 -148 143.91 -148z" />
    <glyph glyph-name="omacron" unicode="&#x14d;" horiz-adv-x="653" 
d="M168.73 617.18v114.73h313v-114.73h-313zM326.551 -15.2695c-167.27 0 -291.909 122.449 -291.909 285.27c0 163.82 124.64 285.28 291.909 285.28c166.45 0 291.91 -121.64 291.91 -285.279c0 -162.82 -125.46 -285.271 -291.91 -285.271zM326.551 121.999
c84.1797 0 143.91 60.54 143.91 148c0 87.4502 -59.7305 148 -143.91 148s-143.91 -60.5498 -143.91 -148c0 -87.46 59.7305 -148 143.91 -148z" />
    <glyph glyph-name="oslash" unicode="&#xf8;" horiz-adv-x="668" 
d="M519.48 492.01c69.6299 -50.21 113.24 -130.61 113.24 -225.29c0 -160.81 -123.27 -281.449 -287.539 -281.449c-34.0195 0 -66.1191 5.32031 -95.8193 15.3398l-34.7305 -61.6104h-133.27l63.5098 112.32c-67.6504 50.0195 -109.601 129.199 -109.601 221.949
c0 160.82 124.45 281.641 289.55 281.641c30.7695 0 60.1797 -4.58984 87.71 -13.1201l31.8301 59.21h133.27zM324.82 425.09c-89.2803 0 -149.641 -63.3701 -149.641 -151.82c0 -42.6602 14.3896 -79.5498 39.5 -105.97l140.12 254.85
c-9.62988 1.90039 -19.6699 2.94043 -29.9795 2.94043zM345.181 115.09c87.2695 0 147.82 62.3604 147.82 151.63c0 44.6904 -14.9102 81.4004 -41.1299 107.91l-141.33 -255.99c10.7598 -2.34961 22.1895 -3.5498 34.6396 -3.5498z" />
    <glyph glyph-name="oslashacute" unicode="&#x1ff;" horiz-adv-x="668" 
d="M477.36 751.72l-99.3594 -152h-110.46l54.5498 152h155.27zM519.481 492.01c69.6299 -50.21 113.24 -130.61 113.24 -225.29c0 -160.81 -123.27 -281.449 -287.539 -281.449c-34.0195 0 -66.1191 5.32031 -95.8193 15.3398l-34.7305 -61.6104h-133.27l63.5098 112.32
c-67.6504 50.0195 -109.601 129.199 -109.601 221.949c0 160.82 124.45 281.641 289.55 281.641c30.7695 0 60.1797 -4.58984 87.71 -13.1201l31.8301 59.21h133.27zM324.821 425.09c-89.2803 0 -149.641 -63.3701 -149.641 -151.82
c0 -42.6602 14.3896 -79.5498 39.5 -105.97l140.12 254.85c-9.62988 1.90039 -19.6699 2.94043 -29.9795 2.94043zM345.182 115.09c87.2695 0 147.82 62.3604 147.82 151.63c0 44.6904 -14.9102 81.4004 -41.1299 107.91l-141.33 -255.99
c10.7598 -2.34961 22.1895 -3.5498 34.6396 -3.5498z" />
    <glyph glyph-name="otilde" unicode="&#xf5;" horiz-adv-x="653" 
d="M395.27 599.18c-40.6396 0 -69.2891 19.29 -93.7393 33.7402c-17 10.0898 -31 19.1797 -44.4502 19.1797c-19.2695 0 -35.8096 -16.6396 -35.8096 -40.3701v-7.73047h-80.5498v10.54c0 83 42.7305 135.91 115.37 135.91c40.0898 0 65.7295 -16.46 87.5498 -32.5498
c16.1797 -12.0898 31.3594 -22.1797 49.8096 -22.1797c21.0898 0 35.6396 16.6396 35.6396 41.3701v9h80.7305v-11c0 -83.8203 -43.7305 -135.91 -114.551 -135.91zM326.529 -15.2598c-167.27 0 -291.909 122.449 -291.909 285.27c0 163.82 124.64 285.28 291.909 285.28
c166.45 0 291.91 -121.64 291.91 -285.279c0 -162.82 -125.46 -285.271 -291.91 -285.271zM326.529 122.009c84.1797 0 143.91 60.54 143.91 148c0 87.4502 -59.7305 148 -143.91 148s-143.91 -60.5498 -143.91 -148c0 -87.46 59.7305 -148 143.91 -148z" />
    <glyph glyph-name="oe" unicode="&#x153;" horiz-adv-x="1061" 
d="M1026.91 269.82c0 -14.46 -1.01074 -27.1006 -2.83105 -40.7305h-411.91c12.8896 -73.54 62.1299 -114.09 135.18 -114.09c50.5498 0 92.3594 22.8203 114.55 62.4502h153.45c-39.2695 -117.73 -142.64 -192.73 -268 -192.73
c-83.5996 0 -156.689 36.9902 -205.89 96.6807c-51 -59.8398 -127.21 -96.4902 -215.1 -96.4902c-167.09 0 -291.729 122.45 -291.729 285.09c0 163.82 124.64 285.271 291.729 285.271c87.6699 0 163.72 -36.2305 214.72 -95.7402
c48.9404 59.3799 121.881 95.7402 206.281 95.7402c161.27 0 279.55 -122 279.55 -285.45zM747.35 430.819c-67.1104 0 -114.25 -37.7295 -131.41 -102.189h265.16c-20.46 65.9697 -67.9502 102.189 -133.75 102.189zM326.35 122c83.8203 0 143.551 60.54 143.551 148
c0 87.4502 -59.7305 148 -143.551 148c-84 0 -143.73 -60.5498 -143.73 -148c0 -87.46 59.7305 -148 143.73 -148z" />
    <glyph glyph-name="p" unicode="p" horiz-adv-x="682" 
d="M364.64 555.27c162.64 0 282.89 -121.621 282.89 -285.261c0 -163.46 -120.27 -286.1 -282.909 -286.1c-55.9199 0 -106.68 16.5 -148.54 45.46v-224.01h-146v734.64h96.5498l24.9297 -49.0898c45.8496 40.6201 105.72 64.3604 173.08 64.3604zM352.71 122.019
c84.8203 0 147 63.1797 147 148s-62.1797 148 -147 148s-147.181 -63.3604 -147.181 -148s62.3604 -148 147.181 -148z" />
    <glyph glyph-name="thorn" unicode="&#xfe;" horiz-adv-x="685" 
d="M367.09 555.09c162.63 0 282.91 -121.639 282.91 -285.089c0 -163.46 -120.28 -286.09 -282.91 -286.09c-57.0195 0 -108.68 17.1504 -151 47.1807v-225.73h-146v925.18h146v-222.32c42.3203 29.8496 93.9805 46.8691 151 46.8691zM355.18 122.001
c84.8203 0 147 63.1797 147 148c0 84.6299 -62.1797 147.82 -147 147.82s-147.181 -63.3701 -147.181 -147.82c0 -84.6396 62.3604 -148 147.181 -148z" />
    <glyph glyph-name="q" unicode="q" horiz-adv-x="682" 
d="M515.54 540l96.54 -0.00976562v-734.64h-146v224.01c-41.8604 -28.96 -92.6201 -45.46 -148.54 -45.46c-162.64 0 -282.909 121.82 -282.909 286.09c0 163.64 119.46 285.279 282.91 285.279c67.3096 0 127.14 -23.8701 172.979 -64.5498zM329.44 121.99
c84.8203 0 147.181 63.3604 147.181 148s-62.3604 148 -147.181 148s-147 -63.1797 -147 -148s62.1797 -148 147 -148z" />
    <glyph glyph-name="r" unicode="r" horiz-adv-x="407" 
d="M346.27 543l48 0.000976562v-137.73h-63.3604c-82.2803 0 -114.82 -36.4502 -114.82 -124.73v-280.54h-146v540h93.6299l25.9502 -66.1602c38.4502 47.75 87.2402 69.1602 156.601 69.1602z" />
    <glyph glyph-name="racute" unicode="&#x155;" horiz-adv-x="407" 
d="M375.09 752.72l-99.3594 -152h-110.46l54.5498 152h155.27zM346.271 543l48 0.000976562v-137.73h-63.3604c-82.2803 0 -114.82 -36.4502 -114.82 -124.73v-280.54h-146v540h93.6299l25.9502 -66.1602c38.4502 47.75 87.2402 69.1602 156.601 69.1602z" />
    <glyph glyph-name="rcaron" unicode="&#x159;" horiz-adv-x="407" 
d="M314.09 600.72h-165.55l-114.72 152h125.18l72.3799 -72.6396l73.25 72.6396h125.19zM189.67 473.84c38.4502 47.75 87.2402 69.1611 156.601 69.1611h48v-137.73h-63.3604c-82.2803 0 -114.82 -36.4502 -114.82 -124.73v-280.54h-146v540h93.6299z" />
    <glyph glyph-name="s" unicode="s" horiz-adv-x="525" 
d="M261.91 -15.2695c-135.54 0 -226.08 77.3906 -226.811 193.121h142.36c0.730469 -48.0898 37.5508 -72.0898 89.9111 -72.0898c40.54 0 76.8096 18.3604 76.8096 54.4502c0 36.9102 -46.8203 48.0898 -103.91 57.6299c-86.2695 14.3604 -196 37.4502 -196 164.72
c0 102.18 86.9102 172.729 217.271 172.729s215.91 -72.5498 216.46 -180.46h-138.55c-0.549805 42.9102 -30.6396 64.0898 -81.5498 64.0898c-45.4502 0 -72.2705 -20.8203 -72.2705 -51.7305c0 -36 46.0898 -44.3604 102.18 -54.54
c88.0898 -15.8203 200.55 -34.46 200.55 -166.01c0 -110.18 -90.0898 -181.91 -226.45 -181.91z" />
    <glyph glyph-name="sacute" unicode="&#x15b;" horiz-adv-x="525" 
d="M195.18 599.73l54.5508 152h155.27l-99.3604 -152h-110.46zM261.91 -15.2695c-135.54 0 -226.08 77.3906 -226.811 193.121h142.36c0.730469 -48.0898 37.5508 -72.0898 89.9111 -72.0898c40.54 0 76.8096 18.3604 76.8096 54.4502
c0 36.9102 -46.8203 48.0898 -103.91 57.6299c-86.2695 14.3604 -196 37.4502 -196 164.72c0 102.18 86.9102 172.729 217.271 172.729s215.91 -72.5498 216.46 -180.46h-138.55c-0.549805 42.9102 -30.6396 64.0898 -81.5498 64.0898
c-45.4502 0 -72.2705 -20.8203 -72.2705 -51.7305c0 -36 46.0898 -44.3604 102.18 -54.54c88.0898 -15.8203 200.55 -34.46 200.55 -166.01c0 -110.18 -90.0898 -181.91 -226.45 -181.91z" />
    <glyph glyph-name="scaron" unicode="&#x161;" horiz-adv-x="525" 
d="M334.55 751.73h125.201l-115.73 -152h-165.55l-114.73 152h125.18l72.3799 -72.6396zM261.931 -15.2695c-135.54 0 -226.08 77.3906 -226.811 193.121h142.36c0.730469 -48.0898 37.5508 -72.0898 89.9111 -72.0898c40.54 0 76.8096 18.3604 76.8096 54.4502
c0 36.9102 -46.8203 48.0898 -103.91 57.6299c-86.2695 14.3604 -196 37.4502 -196 164.72c0 102.18 86.9102 172.729 217.271 172.729s215.91 -72.5498 216.46 -180.46h-138.55c-0.549805 42.9102 -30.6396 64.0898 -81.5498 64.0898
c-45.4502 0 -72.2705 -20.8203 -72.2705 -51.7305c0 -36 46.0898 -44.3604 102.18 -54.54c88.0898 -15.8203 200.55 -34.46 200.55 -166.01c0 -110.18 -90.0898 -181.91 -226.45 -181.91z" />
    <glyph glyph-name="scedilla" unicode="&#x15f;" horiz-adv-x="525" 
d="M488.36 166.64c0 -97.7402 -70.8896 -165.186 -182.09 -179.186l-8.82031 -30.1904c54.3799 -7.69043 90.9199 -41.5303 90.9199 -93.5c0 -61.9102 -55.4502 -103.36 -129.181 -103.36h-66v74.2695h59.9102c22.3604 0 37.8105 13.2695 37.8105 32.9092
s-15.4502 32.7295 -37.8105 32.7295h-40.0898l-7.5498 9.17969l21.7695 77.04c-116.09 12.1299 -191.47 85.7695 -192.13 191.319h142.36c0.730469 -48.0898 37.5508 -72.0898 89.9111 -72.0898c40.54 0 76.8096 18.3604 76.8096 54.4502
c0 36.9102 -46.8203 48.0898 -103.91 57.6299c-86.2695 14.3604 -196 37.4502 -196 164.72c0 102.18 86.9102 172.729 217.271 172.729s215.91 -72.5498 216.46 -180.46h-138.55c-0.549805 42.9102 -30.6396 64.0898 -81.5498 64.0898
c-45.4502 0 -72.2705 -20.8203 -72.2705 -51.7305c0 -36 46.0898 -44.3604 102.18 -54.54c88.0898 -15.8203 200.55 -34.46 200.55 -166.01z" />
    <glyph glyph-name="scircumflex" unicode="&#x15d;" horiz-adv-x="525" 
d="M461.55 599.73h-125.201l-73.25 72.6396l-72.3799 -72.6396h-125.18l114.73 152h165.55zM261.898 -15.2695c-135.54 0 -226.08 77.3906 -226.811 193.121h142.36c0.730469 -48.0898 37.5508 -72.0898 89.9111 -72.0898c40.54 0 76.8096 18.3604 76.8096 54.4502
c0 36.9102 -46.8203 48.0898 -103.91 57.6299c-86.2695 14.3604 -196 37.4502 -196 164.72c0 102.18 86.9102 172.729 217.271 172.729s215.91 -72.5498 216.46 -180.46h-138.55c-0.549805 42.9102 -30.6396 64.0898 -81.5498 64.0898
c-45.4502 0 -72.2705 -20.8203 -72.2705 -51.7305c0 -36 46.0898 -44.3604 102.18 -54.54c88.0898 -15.8203 200.55 -34.46 200.55 -166.01c0 -110.18 -90.0898 -181.91 -226.45 -181.91z" />
    <glyph glyph-name="germandbls" unicode="&#xdf;" horiz-adv-x="620" 
d="M480.17 388.5c69.4004 -35.04 104.188 -92.9502 104.188 -171.681c0 -131.19 -100.73 -216.82 -254.82 -216.82h-55.8203v132.36h54.1904c70.6299 0 113.27 35.46 113.27 93.2695c0 57.46 -42.6396 92.9102 -116.55 92.9102h-42.7197v124.46h35
c64.0898 0 106.18 37.3604 106.18 90.1807c0 52.2695 -41.2695 89.4492 -100.46 89.4492c-67.2695 0 -106.539 -51.4502 -106.539 -127.36v-495.27h-146v481.36c0 166.09 94.54 264.46 248.45 264.46c138.28 0 236.82 -85.6396 236.82 -206.819
c0 -62.8203 -26.2598 -114.46 -75.1895 -150.5z" />
    <glyph glyph-name="longs" unicode="&#x17f;" horiz-adv-x="306" 
d="M70.0898 0l0.000976562 573.09c0 97.0898 61.1797 157.45 159.449 157.45h120.73v-133.09h-75.7305c-39 0 -58.4502 -19.4502 -58.4502 -57.4502v-540h-146z" />
    <glyph glyph-name="t" unicode="t" horiz-adv-x="430" 
d="M334.09 130h66.3604v-130h-103.73c-118.81 0 -191.81 73 -191.81 192.82v229.81h-97.6396v31.5498l213.27 226.73h27.9102v-140.91h149v-117.37h-146.54v-210.45c0 -52.1797 30 -82.1797 83.1797 -82.1797z" />
    <glyph glyph-name="tbar" unicode="&#x167;" horiz-adv-x="451" 
d="M356.91 134.91h59.8096v-134.91h-80c-133.54 -0 -217.18 83.6299 -217.18 217.36v10.2695h-100.91v107.55h100.91v87.4502h-97.6299v31.5498l213.27 226.73h27.9102v-140.91h149v-117.37h-146.55v-87.4502h150.28v-107.55h-150.28v-5.62988
c0 -57.9102 30.8203 -87.0898 91.3701 -87.0898z" />
    <glyph glyph-name="tcaron" unicode="&#x165;" horiz-adv-x="471" 
d="M402.54 734.63h132.28v-106.45c0 -70.3604 -47.8203 -118.36 -126.641 -123.91v57.7305c37.8203 2.71973 59.54 24.0898 59.54 56.7197h-65.1797v115.91zM250.91 212.18c0 -52.1797 30 -82.1797 83.1797 -82.1797h66.3604v-130h-103.73
c-118.81 0 -191.81 73 -191.81 192.82v229.81h-97.6396v31.1904l213.64 227.09h27.54v-140.91h131.27v-117.37h-128.81v-210.45z" />
    <glyph glyph-name="u" unicode="u" horiz-adv-x="633" 
d="M316.82 -15.2803c-152.55 0 -254.1 97.46 -254.1 243.28v312h146v-295.37c0 -76.8096 40.6396 -122.63 108.1 -122.63c67.6299 0 107.27 46.8203 107.27 122.63v295.37h146v-312c0 -145.82 -100.55 -243.28 -253.27 -243.28z" />
    <glyph glyph-name="uacute" unicode="&#xfa;" horiz-adv-x="633" 
d="M250.27 599.72l54.5508 152h155.27l-99.3604 -152h-110.46zM316.82 -15.2803c-152.55 0 -254.1 97.46 -254.1 243.28v312h146v-295.37c0 -76.8096 40.6396 -122.63 108.1 -122.63c67.6299 0 107.27 46.8203 107.27 122.63v295.37h146v-312
c0 -145.82 -100.55 -243.28 -253.27 -243.28z" />
    <glyph glyph-name="ubreve" unicode="&#x16d;" horiz-adv-x="633" 
d="M316.82 590.63c-106.82 0 -177.55 64.0898 -177.55 161.09h112.09v-4.62988c0 -38.5498 26.1797 -61.7295 65.46 -61.7295c39.2695 0 62.6299 23.1797 62.6299 61.7295v4.62988h114.91c0 -97 -70.7305 -161.09 -177.54 -161.09zM316.821 -15.2803
c-152.55 0 -254.1 97.46 -254.1 243.28v312h146v-295.37c0 -76.8096 40.6396 -122.63 108.1 -122.63c67.6299 0 107.27 46.8203 107.27 122.63v295.37h146v-312c0 -145.82 -100.55 -243.28 -253.27 -243.28z" />
    <glyph glyph-name="ucircumflex" unicode="&#xfb;" horiz-adv-x="633" 
d="M516.63 599.72h-125.18l-73.25 72.6504l-72.3799 -72.6504h-125.19l114.73 152h165.55zM316.82 -15.2803c-152.55 0 -254.1 97.46 -254.1 243.28v312h146v-295.37c0 -76.8096 40.6396 -122.63 108.1 -122.63c67.6299 0 107.27 46.8203 107.27 122.63v295.37h146v-312
c0 -145.82 -100.55 -243.28 -253.27 -243.28z" />
    <glyph glyph-name="udieresis" unicode="&#xfc;" horiz-adv-x="633" 
d="M123.73 609.54v138.18h154.73v-138.18h-154.73zM354.19 609.54v138.18h154.73v-138.18h-154.73zM316.83 -15.2803c-152.54 0 -254.089 97.4502 -254.089 243.271v312h146v-295.36c0 -76.8203 40.6396 -122.641 108.09 -122.641
c67.6396 0 107.279 46.8203 107.279 122.641v295.36h146v-312c0 -145.82 -100.55 -243.271 -253.28 -243.271z" />
    <glyph glyph-name="ugrave" unicode="&#xf9;" horiz-adv-x="633" 
d="M381.27 599.72h-110.449l-99.3701 152h155.27zM316.82 -15.2803c-152.55 0 -254.1 97.46 -254.1 243.28v312h146v-295.37c0 -76.8096 40.6396 -122.63 108.1 -122.63c67.6299 0 107.27 46.8203 107.27 122.63v295.37h146v-312c0 -145.82 -100.55 -243.28 -253.27 -243.28
z" />
    <glyph glyph-name="uhungarumlaut" unicode="&#x171;" horiz-adv-x="633" 
d="M157.18 599.72l46.2695 152h145.37l-86.46 -152h-105.18zM354.819 599.72l75.1797 152h139.91l-108.64 -152h-106.45zM316.819 -15.2803c-152.55 0 -254.1 97.46 -254.1 243.28v312h146v-295.37c0 -76.8096 40.6396 -122.63 108.1 -122.63
c67.6299 0 107.27 46.8203 107.27 122.63v295.37h146v-312c0 -145.82 -100.55 -243.28 -253.27 -243.28z" />
    <glyph glyph-name="umacron" unicode="&#x16b;" horiz-adv-x="633" 
d="M159.82 617.18v114.73h313v-114.73h-313zM316.82 -15.2803c-152.55 0 -254.1 97.46 -254.1 243.28v312h146v-295.37c0 -76.8096 40.6396 -122.63 108.1 -122.63c67.6299 0 107.27 46.8203 107.27 122.63v295.37h146v-312c0 -145.82 -100.55 -243.28 -253.27 -243.28z" />
    <glyph glyph-name="uni0123" unicode="&#x123;" horiz-adv-x="671" 
d="M385 719.55l-0.00195312 -115.9h-132.27v106.46c0 70.3604 47.8203 118.36 126.641 123.9v-57.7305c-37.8701 -2.42969 -59.8398 -23.9492 -60.1094 -56.7295h65.7402zM506.088 540.01l94.5391 -0.0117188v-477.27c0 -169.09 -105.09 -272.63 -275.82 -272.63
c-146.27 0 -250.27 74.9102 -275.18 198.271h145.18c16.46 -48.6396 73.6396 -73.3701 127.55 -73.3701c73.7305 0 135.091 47.7305 135.091 126.73v20.0801c-42.96 -30.46 -95.9199 -48.0801 -154.36 -48.0801c-150.82 0 -268.46 118.46 -268.46 270.28
c0 151 117.64 271.27 268.46 271.27c70.3604 0 132.841 -25.8096 179.461 -68.8799zM320.447 144.268c79.6396 0 137.639 58.8203 137.639 139.73c0 80.2695 -57.1797 139.09 -137.63 139.09c-79.6396 0 -137.819 -59 -137.819 -139.09
c0 -80.7305 57.3604 -139.73 137.811 -139.73z" />
    <glyph glyph-name="uni0137" unicode="&#x137;" horiz-adv-x="574" 
d="M376.97 282.85l202.121 -282.85h-176.91l-172.82 258.33v-258.33h-146v734.63h146v-434.57l162.09 239.94h168.18zM247.091 -156v115.909h132.27v-106.46c0 -70.3604 -47.8203 -118.36 -126.641 -123.91v57.7305c37.8203 2.73047 59.5508 24.0908 59.5508 56.7305
h-65.1797z" />
    <glyph glyph-name="uni013C" unicode="&#x13c;" horiz-adv-x="286" 
d="M70.0898 0v734.63h146v-734.63h-146zM82.0898 -270.46v57.7295c37.8203 2.73047 59.54 24.0908 59.54 56.7305h-65.1797v115.91h132.28v-106.46c0 -70.3604 -47.8203 -118.36 -126.641 -123.91z" />
    <glyph glyph-name="uni0146" unicode="&#x146;" horiz-adv-x="641" 
d="M377.63 552.82c123.09 0 199.819 -88.8184 199.819 -225.549v-327.27h-146v303.63c0 81.6396 -31 121 -94.1797 121c-75.2695 0 -121.18 -53.9102 -121.18 -140.811v-283.82h-146v540h100.18l28.46 -66.75c40.8604 48.6797 105.41 79.5693 178.9 79.5693z
M252.909 -155.998v115.909h132.27v-106.46c0 -70.3604 -47.8203 -118.36 -126.641 -123.91v57.7305c37.8203 2.73047 59.5508 24.0908 59.5508 56.7305h-65.1797z" />
    <glyph glyph-name="uni0157" unicode="&#x157;" horiz-adv-x="407" 
d="M346.27 543l48 0.000976562v-137.73h-63.3604c-82.2803 0 -114.82 -36.4502 -114.82 -124.73v-280.54h-146v540h93.6299l25.9502 -66.1602c38.4502 47.75 87.2402 69.1602 156.601 69.1602zM77.4492 -155.999v115.909h132.28v-106.46
c0 -70.3604 -47.8203 -118.36 -126.641 -123.91v57.7305c37.8203 2.73047 59.54 24.0908 59.54 56.7305h-65.1797z" />
    <glyph glyph-name="uni0163" unicode="&#x163;" horiz-adv-x="430" 
d="M400.63 0l-98.21 0.000976562l-9.25 -31.6797c54.3799 -7.69043 90.9199 -41.5303 90.9199 -93.5c0 -61.9102 -55.46 -103.37 -129.18 -103.37h-66v74.2695h59.9102c22.3604 0 37.8105 13.2803 37.8105 32.9102c0 19.6396 -15.4502 32.7295 -37.8105 32.7295h-40.0996
l-7.54004 9.17969l25.2695 89.4004c-76.6602 23.7598 -121.54 88.9297 -121.54 182.88v229.81h-97.6396v31.1904l213.64 227.09h27.54v-140.91h149.18v-117.37h-146.72v-210.45c0 -52.1797 30 -82.1797 83.1797 -82.1797h66.54v-130z" />
    <glyph glyph-name="uni0219" unicode="&#x219;" horiz-adv-x="525" 
d="M261.91 -15.2695c-135.54 0 -226.08 77.3906 -226.811 193.121h142.36c0.730469 -48.0898 37.5508 -72.0898 89.9111 -72.0898c40.54 0 76.8096 18.3604 76.8096 54.4502c0 36.9102 -46.8203 48.0898 -103.91 57.6299c-86.2695 14.3604 -196 37.4502 -196 164.72
c0 102.18 86.9102 172.729 217.271 172.729s215.91 -72.5498 216.46 -180.46h-138.55c-0.549805 42.9102 -30.6396 64.0898 -81.5498 64.0898c-45.4502 0 -72.2705 -20.8203 -72.2705 -51.7305c0 -36 46.0898 -44.3604 102.18 -54.54
c88.0898 -15.8203 200.55 -34.46 200.55 -166.01c0 -110.18 -90.0898 -181.91 -226.45 -181.91zM220.01 -281.509v57.7197c37.8203 2.73047 59.5508 24.0908 59.5508 56.7305h-65.1797v115.91h132.27v-106.45c0 -70.3604 -47.8203 -118.36 -126.641 -123.91z" />
    <glyph glyph-name="uni021B" unicode="&#x21b;" horiz-adv-x="430" 
d="M334.09 130h66.3604v-130h-103.73c-118.81 0 -191.81 73 -191.81 192.82v229.81h-97.6396v31.5498l213.27 226.73h27.9102v-140.91h149v-117.37h-146.54v-210.45c0 -52.1797 30 -82.1797 83.1797 -82.1797zM188.271 -156v115.909h132.27v-106.46
c0 -70.3604 -47.8203 -118.36 -126.63 -123.91v57.7305c37.8096 2.73047 59.54 24.0908 59.54 56.7305h-65.1797z" />
    <glyph glyph-name="uogonek" unicode="&#x173;" horiz-adv-x="631" 
d="M422.27 540l146.001 0.00195312v-311.82c0 -85.7305 -33.8203 -145.73 -120.73 -210.271c-48.7197 -36.1904 -71.9102 -62.6406 -71.9102 -93.001c0 -34.2803 25.0898 -50.5498 59.9102 -50.5498c17.8203 0 38.0898 4.82031 58.5498 12.46v-81.8203
c-30.5498 -18.7305 -64.9102 -28 -98.0898 -28c-68.2803 0 -128.641 39.6299 -128.641 113c0 33.9902 13.0801 65.6406 34.8604 96.6904c-142.56 4.41992 -239.5 103.71 -239.5 245.13v308.18h146v-295.55c0 -75.8203 38.8203 -120.63 105.46 -120.63
c67.4502 0 108.09 44.8096 108.09 120.63v295.55z" />
    <glyph glyph-name="uring" unicode="&#x16f;" horiz-adv-x="633" 
d="M316.82 584.91c-75.3701 0 -126.64 48.4502 -126.64 120.45c0 72.1797 51.2695 120.46 126.64 120.46c75.3604 0 126.63 -48.2803 126.63 -120.46c0 -72 -51.2695 -120.45 -126.63 -120.45zM316.82 652.45c31.7197 0 55.0898 22.1797 55.0898 52.9102
c0 30.9102 -23.3701 53.0898 -55.0898 53.0898c-31.7305 0 -55.1006 -22.1797 -55.1006 -53.0898c0 -30.7305 23.3701 -52.9102 55.1006 -52.9102zM316.82 -15.2803c-152.55 0 -254.1 97.46 -254.1 243.28v312h146v-295.37c0 -76.8096 40.6396 -122.63 108.1 -122.63
c67.6299 0 107.27 46.8203 107.27 122.63v295.37h146v-312c0 -145.82 -100.55 -243.28 -253.27 -243.28z" />
    <glyph glyph-name="utilde" unicode="&#x169;" horiz-adv-x="633" 
d="M386.36 599.18c-40.6299 0 -69.2686 19.2695 -93.7285 33.7295c-17 10.0898 -31 19.1797 -44.4502 19.1797c-19.2695 0 -35.8193 -16.6396 -35.8193 -40.3701v-7.71973h-80.54v10.54c0 83 42.7197 135.91 115.359 135.91c40.0898 0 65.7295 -16.4502 87.5498 -32.54
c16.1797 -12.0898 31.3594 -22.1895 49.8096 -22.1895c21.0898 0 35.6396 16.6396 35.6396 41.3701v9h80.7305v-11c0 -83.8203 -43.7305 -135.91 -114.551 -135.91zM316.821 -15.2803c-152.55 0 -254.1 97.46 -254.1 243.28v312h146v-295.37
c0 -76.8096 40.6396 -122.63 108.1 -122.63c67.6299 0 107.27 46.8203 107.27 122.63v295.37h146v-312c0 -145.82 -100.55 -243.28 -253.27 -243.28z" />
    <glyph glyph-name="v" unicode="v" horiz-adv-x="584" 
d="M424.36 540h151.271l-214.54 -540h-134.73l-219.73 540h155.73l132.17 -361.8z" />
    <glyph glyph-name="w" unicode="w" horiz-adv-x="852" 
d="M697.09 540h144.539l-176.45 -540h-117.55l-122.17 279.27l-120.01 -279.27h-117.54l-178.73 540h148.36l106.74 -321.74l140.44 318.01h41.1904l145.13 -319.14z" />
    <glyph glyph-name="wacute" unicode="&#x1e83;" horiz-adv-x="852" 
d="M568.54 751.72l-99.3594 -152h-110.46l54.5498 152h155.27zM697.091 540h144.539l-176.45 -540h-117.55l-122.17 279.27l-120.01 -279.27h-117.54l-178.73 540h148.36l106.74 -321.74l140.44 318.01h41.1904l145.13 -319.14z" />
    <glyph glyph-name="wcircumflex" unicode="&#x175;" horiz-adv-x="852" 
d="M426.65 672.37l-72.3818 -72.6504h-125.18l114.73 152h165.54l115.73 -152h-125.18zM697.089 540h144.539l-176.45 -540h-117.55l-122.17 279.27l-120.01 -279.27h-117.54l-178.73 540h148.36l106.74 -321.74l140.44 318.01h41.1904l145.13 -319.14z" />
    <glyph glyph-name="wdieresis" unicode="&#x1e85;" horiz-adv-x="852" 
d="M232.18 609.54v138.18h154.73v-138.18h-154.73zM462.63 609.54v138.18h154.73v-138.18h-154.73zM697.09 539.989h144.55l-176.45 -540h-117.55l-122.17 279.27l-120 -279.27h-117.55l-178.73 540h148.36l106.74 -321.73l140.44 318h41.1797l145.14 -319.14z" />
    <glyph glyph-name="wgrave" unicode="&#x1e81;" horiz-adv-x="852" 
d="M489.73 599.72h-110.459l-99.3604 152h155.27zM697.092 540h144.539l-176.45 -540h-117.55l-122.17 279.27l-120.01 -279.27h-117.54l-178.73 540h148.36l106.74 -321.74l140.44 318.01h41.1904l145.13 -319.14z" />
    <glyph glyph-name="x" unicode="x" horiz-adv-x="545" 
d="M543.72 0h-165.181l-106.82 178.6l-109.72 -178.6h-160.73l183.59 277.29l-171.68 262.71h165.18l93.6104 -156.02l100.12 156.02h160.73l-174.34 -255.24z" />
    <glyph glyph-name="y" unicode="y" horiz-adv-x="602" 
d="M443.27 540l155.271 0.000976562l-235.36 -532.82c-64.7305 -146.36 -121.641 -201.82 -242.82 -201.82h-60.1797v131.27h50.54c70.3701 0 88.6396 18.7305 121.819 100.37l2.0498 4.37988l-228.77 498.62h158.9l144.05 -332.2z" />
    <glyph glyph-name="yacute" unicode="&#xfd;" horiz-adv-x="602" 
d="M447.45 751.72l-99.3594 -152h-110.46l54.5498 152h155.27zM443.271 540l155.271 0.000976562l-235.36 -532.82c-64.7305 -146.36 -121.641 -201.82 -242.82 -201.82h-60.1797v131.27h50.54c70.3701 0 88.6396 18.7305 121.819 100.37l2.0498 4.37988l-228.77 498.62
h158.9l144.05 -332.2z" />
    <glyph glyph-name="ycircumflex" unicode="&#x177;" horiz-adv-x="602" 
d="M305.56 672.37l-72.3809 -72.6504h-125.18l114.72 152h165.55l115.73 -152h-125.18zM443.269 540l155.271 0.000976562l-235.36 -532.82c-64.7305 -146.36 -121.641 -201.82 -242.82 -201.82h-60.1797v131.27h50.54c70.3701 0 88.6396 18.7305 121.819 100.37
l2.0498 4.37988l-228.77 498.62h158.9l144.05 -332.2z" />
    <glyph glyph-name="ydieresis" unicode="&#xff;" horiz-adv-x="602" 
d="M111.09 609.54v138.18h154.73v-138.18h-154.73zM341.54 609.54v138.18h154.73v-138.18h-154.73zM443.271 539.989l155.28 -0.00878906l-235.36 -532.82c-64.7305 -146.36 -121.641 -201.811 -242.82 -201.811h-60.1797v131.27h50.54
c70.3604 0 88.6299 18.7305 121.81 100.37l2.0498 4.37988l-228.77 498.62h158.91l144.04 -332.19z" />
    <glyph glyph-name="ygrave" unicode="&#x1ef3;" horiz-adv-x="602" 
d="M368.63 599.72h-110.449l-99.3604 152h155.27zM443.271 540l155.271 0.000976562l-235.36 -532.82c-64.7305 -146.36 -121.641 -201.82 -242.82 -201.82h-60.1797v131.27h50.54c70.3701 0 88.6396 18.7305 121.819 100.37l2.0498 4.37988l-228.77 498.62h158.9
l144.05 -332.2z" />
    <glyph glyph-name="z" unicode="z" horiz-adv-x="500" 
d="M239.78 134.27l227.581 0.000976562v-134.27h-446.45v16.2695l230.25 391.27h-207.98v132.46h424v-19.9102z" />
    <glyph glyph-name="zacute" unicode="&#x17a;" horiz-adv-x="500" 
d="M398.18 751.72l-99.3594 -152h-110.46l54.5498 152h155.27zM239.78 134.27l227.581 0.000976562v-134.27h-446.45v16.2695l230.25 391.27h-207.98v132.46h424v-19.9102z" />
    <glyph glyph-name="zcaron" unicode="&#x17e;" horiz-adv-x="500" 
d="M337.18 599.72h-165.55l-114.72 152h125.18l72.3799 -72.6396l73.25 72.6396h125.19zM239.78 134.27l227.581 0.000976562v-134.27h-446.45v16.2695l230.25 391.27h-207.98v132.46h424v-19.9102z" />
    <glyph glyph-name="zdotaccent" unicode="&#x17c;" horiz-adv-x="500" 
d="M327.63 747.72v-138.18h-145.45v138.18h145.45zM239.78 134.271l227.581 0.000976562v-134.27h-446.45v16.2695l230.25 391.27h-207.98v132.46h424v-19.9102z" />
    <glyph glyph-name="germandbls.calt" horiz-adv-x="728" 
d="M531.08 454.19c98.21 -30.0801 158.642 -110.181 158.642 -215.65c0 -138.27 -101.27 -238.539 -265 -238.539h-94.6299v141.91h94.6299c64.7305 0 109.91 42.4502 109.91 99.9102c0 60.0898 -43.54 100.899 -109.91 100.899h-77.9004v23.0996l90.8896 193.27h-109.99
c-64.2695 0 -98.2695 -33.8203 -98.2695 -98.0898v-461h-154.73v475.09c0 135.45 89.46 224.91 225.729 224.91h334.91v-23.5498z" />
    <glyph glyph-name="i.loclTRK" horiz-adv-x="286" 
d="M70.3604 609.54v138.18h145.46v-138.18h-145.46zM70.0908 -0v540h146v-540h-146z" />
    <glyph glyph-name="k.ss01" horiz-adv-x="559" 
d="M565.82 0h-176.101l-173.63 258.4v-258.4h-146v734.63h146v-434.72l163.73 240.09h166.54l-183.03 -258.39z" />
    <glyph glyph-name="k.ss03" horiz-adv-x="559" 
d="M565.82 0h-176.101l-173.63 258.4v-258.4h-146v734.63h146v-434.72l163.73 240.09h166.54l-183.03 -258.39z" />
    <glyph glyph-name="k.ss04" horiz-adv-x="559" 
d="M565.82 0h-176.101l-173.63 258.4v-258.4h-146v734.63h146v-434.72l163.73 240.09h166.54l-183.03 -258.39z" />
    <glyph glyph-name="ordfeminine" unicode="&#xaa;" horiz-adv-x="458" 
d="M323.77 708.73l72.1699 0.000976562v-331.53h-75.0303l-9.95996 34.9502c-28.3896 -25.4502 -65.7598 -40.6807 -108.029 -40.6807c-92.96 0 -166.729 76 -166.729 172c0 95 73.7695 171 166.729 171c42.9502 0 80.8398 -15.7305 109.39 -41.8203zM215.13 458.672
c47.6504 0 83.0498 35.6904 83.0498 84.8008c0 48.9805 -35.4004 84.8008 -83.0508 84.8008c-48.6396 0 -83.1797 -36.8203 -83.1797 -84.8008c0 -48.9805 35.5303 -84.8008 83.1807 -84.8008z" />
    <glyph glyph-name="ordmasculine" unicode="&#xba;" horiz-adv-x="427" 
d="M213.92 372.34c-101.86 0 -177.73 73 -177.73 171s75.8701 171 177.73 171c101 0 176.74 -73 176.74 -171s-75.7402 -171 -176.74 -171zM213.92 462.96c46.6602 0 78.7803 32.1299 78.7803 80.3799c0 47.3896 -32.1201 80.3701 -78.7803 80.3701
c-47.5195 0 -79.6494 -32.9805 -79.6494 -80.3701s32.1299 -80.3799 79.6494 -80.3799z" />
    <glyph glyph-name="uni0410" unicode="&#x410;" horiz-adv-x="718" 
d="M544.82 0l-48.8691 132.72h-278.56l-48.0303 -132.72h-160.73l274.37 700h143l283.18 -700h-164.36zM356.011 515.01l-91.3701 -250.29h183.68z" />
    <glyph glyph-name="uni0411" unicode="&#x411;" horiz-adv-x="618" 
d="M355.27 446.63c134.27 0 228.91 -92.6299 228.91 -222.72c0 -130.28 -96.6396 -223.91 -229.27 -223.91h-274.82v700h449v-138.28h-300v-115.09h126.18zM342.181 138.82c51.1797 0 86.9092 35.8096 86.9092 85.0898c0 50.0898 -35.5498 84.7197 -86.7295 84.7197h-113.27
v-169.81h113.09z" />
    <glyph glyph-name="uni0412" unicode="&#x412;" horiz-adv-x="642" 
d="M501.1 369.18c61.8203 -32.4199 96.9082 -93.1699 96.9082 -167.189c0 -112.27 -98.7305 -202 -220.37 -202h-297.55v700h289.45c120.73 0 210.461 -77 210.461 -180c0 -60.1699 -29.5898 -116.28 -78.8994 -150.811zM433.107 496.359
c0 43.9102 -30.46 74.6289 -78 74.6289h-126.18v-149.27h126.18c47.7305 0 78 30.9102 78 74.6406zM363.377 138.987c49.8203 0 82.6309 32.9102 82.6309 78.9102c0 45 -32.8203 78.0898 -82.6406 78.0898h-134.45v-157h134.46z" />
    <glyph glyph-name="uni0413" unicode="&#x413;" horiz-adv-x="500" 
d="M477.72 700v-140.55h-246.18v-559.45h-151.45v700h397.63z" />
    <glyph glyph-name="uni0403" unicode="&#x403;" horiz-adv-x="500" 
d="M406.54 909.36l-100.27 -142h-110.45l55.4502 142h155.27zM477.721 700v-140.55h-246.18v-559.45h-151.45v700h397.63z" />
    <glyph glyph-name="uni0490" unicode="&#x490;" horiz-adv-x="500" 
d="M338.82 805h138.899v-245.55h-246.18v-559.45h-151.45v700h258.73v105z" />
    <glyph glyph-name="uni0414" unicode="&#x414;" horiz-adv-x="764" 
d="M653.45 140.54h67.0889v-264.54h-139.54v124h-414.18v-124h-139.55v264.54h55.2402c59.4004 46.3896 69.5205 128.09 104.58 559.46h466.36v-559.46zM317.529 559.45c-15.3604 -258.43 -33.9502 -360.65 -78.2402 -418.91h262.53v418.91h-184.29z" />
    <glyph glyph-name="uni0415" unicode="&#x415;" horiz-adv-x="559" 
d="M231.54 140.91l279.82 -0.000976562v-140.91h-431.27v700h420.27v-139.91h-268.82v-138.27h242.82v-137.1h-242.82v-143.81z" />
    <glyph glyph-name="uni0401" unicode="&#x401;" horiz-adv-x="559" 
d="M96.46 768.46v134.91h154.73v-134.91h-154.73zM330.19 768.46v134.91h154.73v-134.91h-154.73zM231.551 140.91h279.82v-140.91h-431.27v700h420.27v-139.91h-268.82v-138.27h242.82v-137.09h-242.82v-143.82z" />
    <glyph glyph-name="uni0416" unicode="&#x416;" horiz-adv-x="982" 
d="M987.18 0h-178.909l-241.73 339.33v-339.33h-151.45v339.33l-241.73 -339.33h-178.91l261.21 364.04l-232.75 335.96h173.91l218.27 -320.62v320.62h151.45v-320.62l218.28 320.62h173.9l-232.75 -335.96z" />
    <glyph glyph-name="uni0417" unicode="&#x417;" horiz-adv-x="586" 
d="M452.94 363.78c58.1201 -36.3398 90.5195 -93.9209 90.5195 -160.221c0 -142.09 -124.27 -218.64 -256.09 -218.64c-128.46 0 -251 78.6396 -252.09 227h147.82c1.26953 -62.1797 51.2695 -95.4492 104.27 -95.4492c56.7305 0 108.091 32.1797 108.091 91.9102
c0 53.3604 -43.3604 87.1807 -107.91 87.1807h-63.4502v128h63.4502c55.7305 0 93.9102 32.9102 93.9102 81.1797c0 55.1797 -44.3604 84.4492 -94.0908 84.4492c-48.9102 0 -95.9102 -30.9102 -97.5498 -85.5498h-144.18c1.4502 139 119.36 211.64 240.91 211.64
c123 0 239.27 -71.8203 239.27 -208.37c0 -59.3398 -24.3701 -108.07 -72.8799 -143.13z" />
    <glyph glyph-name="uni0418" unicode="&#x418;" horiz-adv-x="741" 
d="M550.63 700h109.91v-700h-151.45v421.12l-323.73 -421.12h-105.27v700h151.45v-416.17z" />
    <glyph glyph-name="uni0419" unicode="&#x419;" horiz-adv-x="741" 
d="M215.46 777.27v112.91h300.73v-112.91h-300.73zM550.64 700h109.91v-700h-151.45v421.12l-323.73 -421.12h-105.27v700h151.45v-416.17z" />
    <glyph glyph-name="uni041A" unicode="&#x41a;" horiz-adv-x="656" 
d="M663.54 0h-184.82l-247.18 341.61v-341.61h-151.45v700h151.45v-323.32l229.46 323.32h176.54l-238.15 -335.39z" />
    <glyph glyph-name="uni041B" unicode="&#x41b;" horiz-adv-x="756" 
d="M210.63 700h465.641v-700h-151.45v559.45h-182.02l-32.3496 -303.36c-18.7305 -173.91 -98.0908 -257.91 -245.271 -257.91h-39v148h39.6396c54.8096 0 84.8096 33 92.8096 102.82z" />
    <glyph glyph-name="uni041C" unicode="&#x41c;" horiz-adv-x="975" 
d="M937.91 0h-154.279l-69.0303 456.8l-208.69 -455.53h-37.2803l-208.72 455.44l-69.1904 -456.71h-154.27l109.64 700h151.73l189.31 -429.14l190.23 429.14h152.09z" />
    <glyph glyph-name="uni041D" unicode="&#x41d;" horiz-adv-x="727" 
d="M495 700h151.45v-700h-151.45v289.45h-263.46v-289.45h-151.45v700h151.45v-269.64h263.46v269.64z" />
    <glyph glyph-name="uni041E" unicode="&#x41e;" horiz-adv-x="823" 
d="M412.36 -15.2695c-213.64 0 -373.55 157.458 -373.55 365.278s159.91 365.28 373.55 365.28c212.82 0 371.91 -156.64 371.91 -365.279s-159.09 -365.279 -371.91 -365.279zM412.36 127.639c124.73 0 218.461 95.3604 218.461 222.36s-93.7305 222.36 -218.461 222.36
s-220.091 -96.3604 -220.091 -222.36s95.3604 -222.36 220.091 -222.36z" />
    <glyph glyph-name="uni041F" unicode="&#x41f;" horiz-adv-x="705" 
d="M80.0898 700h545.09v-700h-151.64v559.45h-242v-559.45h-151.45v700z" />
    <glyph glyph-name="uni0420" unicode="&#x420;" horiz-adv-x="622" 
d="M349.45 700c140.37 0 247.09 -102.55 247.09 -240.729c0 -138 -106.54 -240.73 -247.09 -240.73h-117.91v-218.54h-151.45v700h269.36zM342.82 358.82c60.0898 0 100.27 42.2715 100.27 100.451s-40.1797 100.449 -100.27 100.449h-111.28v-200.9h111.28z" />
    <glyph glyph-name="uni0421" unicode="&#x421;" horiz-adv-x="771" 
d="M401.09 -15.0898c-205.55 0 -361.45 157.532 -361.45 364.263c0 208.36 155.91 365.91 361.46 365.91c170.36 0 306.271 -112.73 338.721 -278.82h-151.82c-28.6396 82.6396 -98.6396 134.279 -186.909 134.279c-118.46 0 -208 -95.4502 -208 -221.36
s89.54 -219.73 208 -219.73c92.0898 0 163.09 55.6396 188.27 144.279h152.64c-31.6396 -173.09 -167.55 -288.82 -340.91 -288.82z" />
    <glyph glyph-name="uni0422" unicode="&#x422;" horiz-adv-x="584" 
d="M562.54 700v-140.55h-194.63v-559.45h-151.46v559.45h-194.63v140.55h540.72z" />
    <glyph glyph-name="uni0423" unicode="&#x423;" horiz-adv-x="629" 
d="M468.54 700h158.46l-197.64 -472.37c-71.7305 -172.63 -146.271 -229.63 -298.36 -229.63h-27.9102v140.54h44.0898c61.9805 0 89.8105 15.5498 117.87 67.3799l-260.42 494.08h170.37l166.29 -320.01z" />
    <glyph glyph-name="uni040E" unicode="&#x40e;" horiz-adv-x="629" 
d="M172.18 777.27v112.91h300.73v-112.91h-300.73zM468.54 700h158.449l-197.64 -472.36c-71.7305 -172.64 -146.271 -229.64 -298.36 -229.64h-27.9102v140.54h44.0898c61.9805 0 89.8105 15.5498 117.881 67.3799l-260.42 494.08h170.36l166.29 -320z" />
    <glyph glyph-name="uni0424" unicode="&#x424;" horiz-adv-x="896" 
d="M855.45 351.82c0 -177.33 -112.65 -349.23 -333.181 -365.641v-105.82h-147.82v105.85c-219.64 16.5303 -334 188.221 -334 362.791c0 175.51 114.36 348.149 334 364.779v91.4004h147.82v-91.3496c220.53 -16.1699 333.181 -185.64 333.181 -362.01zM520.63 127.17
c119.35 16.04 182.189 118.239 182.189 222.829c0 103.66 -62.8398 205.101 -182.189 221.021v-443.85zM193.91 349.999c0 -104.53 62.9199 -206.689 182.18 -222.8v443.8c-119.26 -16 -182.18 -117.39 -182.18 -221z" />
    <glyph glyph-name="uni0425" unicode="&#x425;" horiz-adv-x="625" 
d="M622.18 0h-170l-138.14 240.47l-139.95 -240.47h-170.18l217.66 367.41l-203.75 332.59h170l125.02 -215.84l126.07 215.84h165.91l-200.99 -338.18z" />
    <glyph glyph-name="uni0427" unicode="&#x427;" horiz-adv-x="657" 
d="M425.63 700h151.639v-700h-151.64v249.24c-43.7803 -16.2803 -86.9404 -24.2402 -127.54 -24.2402c-143.18 0 -255.18 98.3604 -255.18 270v205h152.45v-203.73c0 -88.1797 41.46 -134.09 117.46 -134.09c31.79 0 69.7705 8.28027 112.811 25.4102v312.41z" />
    <glyph glyph-name="uni0426" unicode="&#x426;" horiz-adv-x="727" 
d="M617.54 140.54h65.2793v-264.54h-139.55v124h-463.18v700h151.45v-559.46h234.55v559.46h151.45v-559.46z" />
    <glyph glyph-name="uni0428" unicode="&#x428;" horiz-adv-x="974" 
d="M742.09 700h151.45v-700h-813.45v700h151.45v-559.46h181.28v559.46h147.81v-559.46h181.46v559.46z" />
    <glyph glyph-name="uni0429" unicode="&#x429;" horiz-adv-x="1006" 
d="M893.54 140.54h69.0898v-264.54h-139.54v124h-743v700h151.45v-559.46h181.28v559.46h147.81v-559.46h181.46v559.46h151.45v-559.46z" />
    <glyph glyph-name="uni040F" unicode="&#x40f;" horiz-adv-x="701" 
d="M621.36 700l0.000976562 -700h-195.91v-127.55h-149.63v127.55h-195.73v700h151.45v-559.46h238.18v559.46h151.64z" />
    <glyph glyph-name="uni042C" unicode="&#x42c;" horiz-adv-x="631" 
d="M352 487.72c147.82 0 252.54 -100.72 252.54 -243.54c0 -142.46 -104.91 -244.18 -252.54 -244.18h-271.91v700h151.45v-212.28h120.46zM340.91 142.18c64.7197 0 109.359 41.8203 109.359 102.181c0 60.5498 -44.6396 101.359 -109.359 101.359h-109.37v-203.54h109.37z
" />
    <glyph glyph-name="uni042A" unicode="&#x42a;" horiz-adv-x="718" 
d="M438.91 487.72c147.81 0 252.54 -100.72 252.54 -243.54c0 -142.46 -104.91 -244.18 -252.54 -244.18h-271.91v559.45h-145.09v140.55h296.54v-212.28h120.46zM427.82 142.18c64.7197 0 109.359 41.8203 109.359 102.181c0 60.5498 -44.6396 101.359 -109.359 101.359
h-109.37v-203.54h109.37z" />
    <glyph glyph-name="uni042B" unicode="&#x42b;" horiz-adv-x="908" 
d="M352 487.72c147.82 0 252.54 -100.72 252.54 -243.54c0 -142.46 -104.91 -244.18 -252.54 -244.18h-271.91v700h151.45v-212.28h120.46zM676.09 700h151.45v-700h-151.45v700zM340.91 142.18c64.7197 0 109.359 41.8203 109.359 102.181
c0 60.5498 -44.6396 101.359 -109.359 101.359h-109.37v-203.54h109.37z" />
    <glyph glyph-name="uni0409" unicode="&#x409;" horiz-adv-x="1073" 
d="M794.09 484.45c147.82 0 252.538 -99.9092 252.538 -241.909c0 -141.63 -104.91 -242.54 -252.54 -242.54h-272.09v559.45h-180.38l-32.3496 -303.36c-18.9102 -173.91 -98.0898 -257.91 -245.27 -257.91h-38.6396v149.64h39.6396c54.8203 0 84.8203 33 92.8203 102.81
l52.3604 449.37h463.45v-215.55h120.46zM782.998 140.541c65.3604 0 110.181 42.6396 110.181 103c0 61.3701 -44.8203 102.18 -110.181 102.18h-109.37v-205.18h109.37z" />
    <glyph glyph-name="uni040A" unicode="&#x40a;" horiz-adv-x="1011" 
d="M749.45 447.54c138.82 0 237 -93.7197 237 -224.09c0 -130.54 -98.1797 -223.45 -237 -223.45h-276.45v296.91h-241.46v-296.91h-151.45v700h151.45v-262.37h241.46v262.37h151.45v-252.46h125zM741.181 139.91c57 0 91.8203 32.4502 91.8203 83.54
s-34.8203 82.5498 -91.8203 82.5498h-116.73v-166.09h116.73z" />
    <glyph glyph-name="uni0405" unicode="&#x405;" horiz-adv-x="619" 
d="M312.36 -13.9102c-160.73 0 -271.449 90.2715 -271.449 240.731h152.63c0 -67.6396 55.9102 -100.279 117.82 -100.279c57 0 112.73 30.0898 112.73 82.2803c0 54.2695 -63.8203 69.1797 -139.73 86.8994c-105.54 26 -233.73 56.6396 -233.73 207.46
c0 134.27 98.9102 209.909 253.91 209.909c160.91 0 252.37 -85.9102 252.37 -225.37h-149.64c0 60.2803 -49.7305 88.5498 -106.36 88.5498c-49.0898 0 -98.8203 -20.8203 -98.8203 -66.6406c0 -49.2695 60.8203 -64.1797 134.91 -81.9102
c106.72 -27 240.72 -60.2695 240.72 -217.09c0 -151.18 -120.45 -224.54 -265.36 -224.54z" />
    <glyph glyph-name="uni0404" unicode="&#x404;" horiz-adv-x="776" 
d="M593.91 273.72l151.45 0.000976562c-31.8203 -174.9 -168.73 -289 -344.091 -289c-208.64 0 -361.64 157.46 -361.64 365.28c0 208.82 155.82 365.271 361.641 365.271c171.36 0 302.271 -107.91 341.91 -278.82h-151.64
c-31.3604 82.6396 -101.181 134.09 -190.271 134.09c-97.46 0 -175.22 -60.5898 -200.92 -152.45h268.1v-135.46h-268.22c25.4502 -91.4502 102.72 -153.181 201.04 -153.181c92.2695 0 164.449 55.6396 192.64 144.27z" />
    <glyph glyph-name="uni042D" unicode="&#x42d;" horiz-adv-x="776" 
d="M374.45 715.27c205.82 0 361.642 -156.429 361.642 -365.249c0 -207.82 -153 -365.28 -361.64 -365.28c-175.36 0 -312.271 114.09 -344.091 289h151.45c28.1797 -88.8203 100.359 -144.46 192.629 -144.46c98.2002 0 175.47 61.7695 200.89 153.359h-268.07v135.45
h267.95c-25.6699 92 -103.42 152.63 -200.76 152.63c-89.0898 0 -158.91 -51.4502 -190.271 -134.271h-151.64c39.6396 170.91 170.55 278.82 341.91 278.82z" />
    <glyph glyph-name="uni0406" unicode="&#x406;" horiz-adv-x="312" 
d="M80.0898 0v700h151.45v-700h-151.45z" />
    <glyph glyph-name="uni0407" unicode="&#x407;" horiz-adv-x="312" 
d="M-10.1797 768.45v134.91h139v-134.91h-139zM183 768.45v134.91h139v-134.91h-139zM80.0898 0v700h151.45v-700h-151.45z" />
    <glyph glyph-name="uni0408" unicode="&#x408;" horiz-adv-x="609" 
d="M280.82 -15.2803c-150.64 0 -257.91 105.461 -257.91 254.001v25.6396h149.63v-17.54c0 -72.1904 42.5498 -119.19 108.28 -119.19c61.9004 0 104.45 46.1904 104.45 119.19v453.18h149.64v-461.28c0 -148.54 -101.82 -254 -254.09 -254z" />
    <glyph glyph-name="uni040B" unicode="&#x40b;" horiz-adv-x="774" 
d="M477.91 467.54c148.63 0 254.091 -104.271 254.091 -260.721v-206.82h-154.09v196.82c0 88.8096 -41.7305 134.09 -116.91 134.09c-27.1104 0 -58.1602 -6.09961 -92.0898 -17.4395v-313.47h-151.64v559.45h-195.45v140.55h540.72v-140.55h-193.63v-109.72
c36.7695 11.75 73.4893 17.8096 108.999 17.8096z" />
    <glyph glyph-name="uni042E" unicode="&#x42e;" horiz-adv-x="1061" 
d="M665 715.27c207.27 0 356.45 -152.99 356.45 -365.26c0 -212.46 -148.18 -365.28 -356.449 -365.28c-183.59 0 -322.52 120.46 -351.5 295.91h-81.9502v-280.64h-151.45v700h151.45v-278.82h82.2197c29.4697 174.46 167.39 294.09 351.229 294.09zM660.361 128.64
c123.18 0 210.09 92.5596 210.09 221.38c0 128 -86.9102 221.54 -210.09 221.54c-121.82 0 -210.91 -92.9102 -210.91 -221.55s89.0898 -221.37 210.91 -221.37z" />
    <glyph glyph-name="uni042F" unicode="&#x42f;" horiz-adv-x="664" 
d="M296.46 700l287.56 0.000976562v-700h-151.64v242.64h-97.5498l-132.36 -242.64h-170.91l152.31 266.04c-85.46 38.5898 -135.77 111.359 -135.77 202.419c0 131.18 106.36 231.54 248.36 231.54zM305.38 375.821h127v183.46h-127
c-60.5498 0 -101.37 -36.46 -101.37 -90.8203c0 -55.1797 41.6396 -92.6396 101.37 -92.6396z" />
    <glyph glyph-name="uni0402" unicode="&#x402;" horiz-adv-x="753" 
d="M474.45 473.63c143 0 240.821 -97.8105 240.821 -241.001c0 -144.81 -100.45 -240.81 -250.91 -240.81h-8.63965v143.72h8.63965c64.3604 -0.179688 98.46 46.6406 98.46 96.2803c0 51.4502 -35.0996 98.0898 -99.46 98.0898
c-40.25 0 -78.6504 -21.9297 -103.73 -57.6396v-272.27h-151.45v559.45h-186.36v140.55h531.45v-140.55h-193.64v-117.75c33.21 21.1602 71.5996 31.9297 114.819 31.9297z" />
    <glyph glyph-name="uni0414.loclBGR" horiz-adv-x="757" 
d="M670.87 140.54h56.9492v-263.45h-139.55v122.91h-420v-122.91h-139.55v263.45h53.1201l221.07 559.46h142.63zM374.6 498.14l-137.641 -357.6h274.69z" />
    <glyph glyph-name="uni041B.loclBGR" horiz-adv-x="693" 
d="M681.82 0h-164.37l-170.59 500.19l-177.14 -500.19h-158.9l264 700h143z" />
    <glyph glyph-name="uni0416.ss01" horiz-adv-x="972" 
d="M978.45 0h-178.909l-241.72 339.33v-339.33h-151.46v340.78l-234.36 -340.78h-177.28l254.55 364.15l-227.73 335.85h173.91l210.91 -322.17v322.17h151.46v-320.62l218.27 320.62h173.91l-232.76 -335.96z" />
    <glyph glyph-name="uni041A.ss01" horiz-adv-x="655" 
d="M663.54 0h-184.63l-247.37 342.1v-342.1h-151.45v700h151.45v-323.82l229.64 323.82h176.36l-239.86 -336.83z" />
    <glyph glyph-name="uni0424.ss01" horiz-adv-x="896" 
d="M855.45 351.82c0 -177.33 -112.65 -349.23 -333.181 -365.641v-105.82h-147.82v105.85c-219.64 16.5303 -334 188.221 -334 362.791c0 175.51 114.36 348.149 334 364.779v91.4004h147.82v-91.3496c220.53 -16.1699 333.181 -185.64 333.181 -362.01zM520.63 127.17
c119.35 16.04 182.189 118.239 182.189 222.829c0 103.66 -62.8398 205.101 -182.189 221.021v-443.85zM193.91 349.999c0 -104.53 62.9199 -206.689 182.18 -222.8v443.8c-119.26 -16 -182.18 -117.39 -182.18 -221z" />
    <glyph glyph-name="uni0414.ss02" horiz-adv-x="757" 
d="M670.87 140.54h56.9492v-263.45h-139.55v122.91h-420v-122.91h-139.55v263.45h53.1201l221.07 559.46h142.63zM374.6 498.14l-137.641 -357.6h274.69z" />
    <glyph glyph-name="uni041B.ss02" horiz-adv-x="693" 
d="M681.82 0h-164.37l-170.59 500.19l-177.14 -500.19h-158.9l264 700h143z" />
    <glyph glyph-name="uni0414.ss03" horiz-adv-x="757" 
d="M670.87 140.54h56.9492v-263.45h-139.55v122.91h-420v-122.91h-139.55v263.45h53.1201l221.07 559.46h142.63zM374.6 498.14l-137.641 -357.6h274.69z" />
    <glyph glyph-name="uni0416.ss03" horiz-adv-x="972" 
d="M978.45 0h-178.909l-241.72 339.33v-339.33h-151.46v340.78l-234.36 -340.78h-177.28l254.55 364.15l-227.73 335.85h173.91l210.91 -322.17v322.17h151.46v-320.62l218.27 320.62h173.91l-232.76 -335.96z" />
    <glyph glyph-name="uni041A.ss03" horiz-adv-x="655" 
d="M663.54 0h-184.63l-247.37 342.1v-342.1h-151.45v700h151.45v-323.82l229.64 323.82h176.36l-239.86 -336.83z" />
    <glyph glyph-name="uni041B.ss03" horiz-adv-x="693" 
d="M681.82 0h-164.37l-170.59 500.19l-177.14 -500.19h-158.9l264 700h143z" />
    <glyph glyph-name="uni0416.ss04" horiz-adv-x="972" 
d="M978.45 0h-178.909l-241.72 339.33v-339.33h-151.46v340.78l-234.36 -340.78h-177.28l254.55 364.15l-227.73 335.85h173.91l210.91 -322.17v322.17h151.46v-320.62l218.27 320.62h173.91l-232.76 -335.96z" />
    <glyph glyph-name="uni041A.ss04" horiz-adv-x="655" 
d="M663.54 0h-184.63l-247.37 342.1v-342.1h-151.45v700h151.45v-323.82l229.64 323.82h176.36l-239.86 -336.83z" />
    <glyph glyph-name="uni0424.ss04" horiz-adv-x="840" 
d="M495.91 667.91c203.72 -16.3701 308.81 -164 308.81 -315.28c0 -150.27 -105.09 -296.72 -308 -313.27v-76.9102h-153.09v76.9102c-202.72 16.5498 -308 163.18 -308 313.27c0 151.28 105.28 298.91 308.82 315.28v69.0898h151.46v-69.0898zM190.72 352.63
c0 -85.75 55.4902 -166.13 158 -174.38v353.51c-102.51 -11.8398 -158 -94.1797 -158 -179.13zM491.63 178.25c103.49 8.24023 157.82 88.6201 157.82 174.38c0 85.1396 -54.3301 167.31 -157.82 179.13v-353.51z" />
    <glyph glyph-name="uni0424.ss05" horiz-adv-x="840" 
d="M495.91 667.91c203.72 -16.3701 308.81 -164 308.81 -315.28c0 -150.27 -105.09 -296.72 -308 -313.27v-76.9102h-153.09v76.9102c-202.72 16.5498 -308 163.18 -308 313.27c0 151.28 105.28 298.91 308.82 315.28v69.0898h151.46v-69.0898zM190.72 352.63
c0 -85.75 55.4902 -166.13 158 -174.38v353.51c-102.51 -11.8398 -158 -94.1797 -158 -179.13zM491.63 178.25c103.49 8.24023 157.82 88.6201 157.82 174.38c0 85.1396 -54.3301 167.31 -157.82 179.13v-353.51z" />
    <glyph glyph-name="uni0430" unicode="&#x430;" horiz-adv-x="690" 
d="M510.91 540.82l108.981 -0.00976562v-540h-114.45l-12.5498 48.3096c-46.3701 -40.5996 -106.87 -64.3994 -174.99 -64.3994c-162.45 0 -283.271 122.64 -283.271 286.09c0 162.82 120.82 284.46 283.271 284.46c69.3096 0 130.729 -24.4297 177.409 -66.0498z
M329.802 122.811c84.8203 0 147 63.1797 147 148s-62.1797 148 -147 148s-147.181 -63.3604 -147.181 -148s62.3604 -148 147.181 -148z" />
    <glyph glyph-name="uni0431" unicode="&#x431;" horiz-adv-x="658" 
d="M358.54 517.72c159.09 0 263.821 -104.54 263.821 -260.45c0 -164.18 -113 -272.55 -285.82 -272.55c-184.91 0 -290.45 119.28 -290.45 327.641c0 239 100.27 372.27 319.09 426.359l180 44.7305v-143.36l-179.64 -44.5498
c-89.9697 -22.0303 -140.41 -62.1006 -156.86 -126.271c46.8896 33.71 96.3496 48.4502 149.859 48.4502zM336.541 119.54c79.46 0 137.82 58.8203 137.82 138.551s-58.3604 138.73 -137.82 138.73c-79.6299 0 -138 -58.8203 -138 -138.73
c0 -79.7305 58.3701 -138.551 138 -138.551z" />
    <glyph glyph-name="uni0432" unicode="&#x432;" horiz-adv-x="574" 
d="M458.06 287c48.7197 -21.9805 78.3896 -67.3311 78.3896 -125.371c0 -91.7197 -72 -161.63 -171.09 -161.63h-295.27v540h291.45c92.46 0 158.55 -57 158.55 -137.18c0 -48.2998 -23.5303 -90.7695 -62.0303 -115.819zM376.72 379.449
c0 30.3701 -21.8096 51.6406 -55.1797 51.6406h-108.27v-103.91h108.27c33.5498 0 55.1797 22.0898 55.1797 52.2695zM329 115.63c36.54 0 59.2695 21.1904 59.2695 55.1904s-22.7305 55.1797 -59.4502 55.1797h-115.55v-110.37h115.73z" />
    <glyph glyph-name="uni0433" unicode="&#x433;" horiz-adv-x="444" 
d="M426.27 540v-129.46h-213v-410.54h-143.18v540h356.18z" />
    <glyph glyph-name="uni0453" unicode="&#x453;" horiz-adv-x="444" 
d="M400.91 751.72l-99.3701 -152h-110.45l54.54 152h155.28zM426.271 540v-129.46h-213v-410.54h-143.18v540h356.18z" />
    <glyph glyph-name="uni0491" unicode="&#x491;" horiz-adv-x="444" 
d="M290 649.82h136.27v-239.28h-213v-410.54h-143.18v540h219.91v109.82z" />
    <glyph glyph-name="uni0434" unicode="&#x434;" horiz-adv-x="667" 
d="M559.82 136.91l66.2686 0.000976562v-260.91h-132.27v124h-338.1v-124h-132.27v260.91h55.9102c41.8799 34.5098 52.4199 94.3193 80.5498 403.089h399.91v-403.09zM288.438 411.541c-11.0303 -166.43 -27.4404 -235.33 -58.46 -274.63h186.65v274.63h-128.19z" />
    <glyph glyph-name="uni0435" unicode="&#x435;" horiz-adv-x="628" 
d="M594.27 271.91c0 -14.2695 -1.01074 -28.5391 -2.83105 -42.8086h-408.69c12.6904 -73.7002 61.1406 -114.28 131.961 -114.28c50.7305 0 92.3701 24 114.55 62.6396h153.45c-39.2695 -117.73 -142.63 -192.73 -267.99 -192.73c-159.45 0 -280.09 123.45 -280.09 285.271
c0 162.64 119.82 285.279 280.09 285.279c165.82 0 279.551 -127.82 279.551 -283.37zM314.709 430.641c-65 0 -111.15 -37.9092 -128.11 -101.819h261.68c-20.6396 66.0195 -68.0498 101.819 -133.569 101.819z" />
    <glyph glyph-name="uni0451" unicode="&#x451;" horiz-adv-x="628" 
d="M276 747.73v-138.18h-154.73v138.18h154.73zM506.46 747.73v-138.18h-154.73v138.18h154.73zM594.28 271.911c0 -14.2695 -1.01074 -28.5391 -2.83105 -42.8086h-408.69c12.6904 -73.7002 61.1406 -114.28 131.961 -114.28c50.7305 0 92.3701 24 114.55 62.6396h153.45
c-39.2695 -117.73 -142.63 -192.73 -267.99 -192.73c-159.45 0 -280.09 123.45 -280.09 285.271c0 162.64 119.82 285.279 280.09 285.279c165.82 0 279.551 -127.82 279.551 -283.37zM314.72 430.642c-65 0 -111.15 -37.9092 -128.11 -101.819h261.68
c-20.6396 66.0195 -68.0498 101.819 -133.569 101.819z" />
    <glyph glyph-name="uni0436" unicode="&#x436;" horiz-adv-x="826" 
d="M832.18 0h-168.091l-184.09 250.06v-250.06h-140.55v248.48l-176.73 -248.48h-167.27l201.24 281.12l-180.24 258.88h164.64l158.36 -233.66v233.66h140.55v-236l164.91 236h165.45l-184.91 -258.35z" />
    <glyph glyph-name="uni0437" unicode="&#x437;" horiz-adv-x="502" 
d="M395.72 289.93c48.7305 -30.1699 70.3496 -71.6914 70.3496 -130.191c0 -102.91 -91.0898 -175 -221.27 -175c-133.18 0 -219.09 76.4502 -220.729 195.271h132.27c2.63965 -44.9102 35.5498 -69.8203 88.46 -69.8203c47.9102 0 78.0898 22.7305 78.0898 59
c0 35.9102 -29.7305 58.6406 -78.0908 58.6406h-58.1797v106.09h58.1797c42.5498 0 66.2803 19.1797 66.2803 51.7197c0 33.9102 -25.8203 54.2705 -69.5508 54.2705c-42.4502 0 -69.54 -22.0898 -72.8096 -61.1797h-132.27c1.4502 104.09 87 176.55 208.73 176.55
c119.36 0 204.45 -67.2695 204.45 -161.819c0 -43.6504 -16.1104 -75.0703 -53.9102 -103.53z" />
    <glyph glyph-name="uni0438" unicode="&#x438;" horiz-adv-x="615" 
d="M463 540h82.0898v-540h-141v286.15l-250.73 -286.15h-83.2695v540h141.18v-282.85z" />
    <glyph glyph-name="uni0439" unicode="&#x439;" horiz-adv-x="615" 
d="M454.09 724.63v-107.45h-275.46v107.45h275.46zM463 540h82.0898v-540h-141v286.15l-250.73 -286.15h-83.2695v540h141.18v-282.85z" />
    <glyph glyph-name="uni045D" unicode="&#x45d;" horiz-adv-x="615" 
d="M380.82 599.72h-110.459l-99.3604 152h155.27zM463.001 540h82.0898v-540h-141v286.15l-250.73 -286.15h-83.2695v540h141.18v-282.85z" />
    <glyph glyph-name="uni043A" unicode="&#x43a;" horiz-adv-x="560" 
d="M565.82 0h-176.101l-173.63 258.4v-258.4h-146v540h146v-240.09l163.73 240.09h166.54l-183.03 -258.39z" />
    <glyph glyph-name="uni045C" unicode="&#x45c;" horiz-adv-x="560" 
d="M425.45 751.72l-99.3594 -152h-110.46l54.5498 152h155.27zM565.821 -0h-176.101l-173.63 258.4v-258.4h-146v540h146v-240.09l163.73 240.09h166.54l-183.03 -258.39z" />
    <glyph glyph-name="uni043B" unicode="&#x43b;" horiz-adv-x="623" 
d="M167.18 540l385.82 -0.000976562v-540h-143.37v413.36h-123.8l-17.9199 -192c-15.8203 -166.64 -85.9102 -224.359 -223.73 -224.359h-24.1797v131.82h35.7197c40 0 68.5498 27.9004 74.0996 81z" />
    <glyph glyph-name="uni043C" unicode="&#x43c;" horiz-adv-x="807" 
d="M774.54 0l-140.541 0.000976562l-50.3896 325.22l-166.61 -325.86h-28.1797l-166.45 325.87l-50.3701 -325.23h-140.55l89.7305 540h124.45l157.42 -305.53l158.95 305.53h123.63z" />
    <glyph glyph-name="uni043D" unicode="&#x43d;" horiz-adv-x="628" 
d="M412.09 540h145.63v-540h-145.63v207.36h-196.37v-207.36h-145.63v540h145.63v-200h196.37v200z" />
    <glyph glyph-name="uni043E" unicode="&#x43e;" horiz-adv-x="653" 
d="M326.55 -15.2695c-167.27 0 -291.909 122.449 -291.909 285.27c0 163.82 124.64 285.28 291.909 285.28c166.45 0 291.91 -121.64 291.91 -285.279c0 -162.82 -125.46 -285.271 -291.91 -285.271zM326.55 121.999c84.1797 0 143.91 60.54 143.91 148
c0 87.4502 -59.7305 148 -143.91 148s-143.91 -60.5498 -143.91 -148c0 -87.46 59.7305 -148 143.91 -148z" />
    <glyph glyph-name="uni043F" unicode="&#x43f;" horiz-adv-x="628" 
d="M70.0898 540h488.18v-540h-145v407.72h-198v-407.72h-145.18v540z" />
    <glyph glyph-name="uni0440" unicode="&#x440;" horiz-adv-x="682" 
d="M364.64 555.27c162.64 0 282.89 -121.621 282.89 -285.261c0 -163.46 -120.27 -286.1 -282.909 -286.1c-55.9199 0 -106.68 16.5 -148.54 45.46v-224.01h-146v734.64h96.5498l24.9297 -49.0898c45.8496 40.6201 105.72 64.3604 173.08 64.3604zM352.71 122.019
c84.8203 0 147 63.1797 147 148s-62.1797 148 -147 148s-147.181 -63.3604 -147.181 -148s62.3604 -148 147.181 -148z" />
    <glyph glyph-name="uni0441" unicode="&#x441;" horiz-adv-x="625" 
d="M321.36 -15.2695c-162.46 0 -286.73 125.098 -286.73 286.918s123.46 283.641 287.55 283.641c139.82 0 248.36 -88.6396 274.63 -221.55h-145c-23.6396 53.0898 -72.2793 84.2695 -130.459 84.2695c-79.1797 0 -138.729 -63.5498 -138.729 -147.189
s60.5498 -148.819 138.729 -148.819c59 0 105.64 32.8203 130.279 90.5508h147c-25.4502 -135.73 -136 -227.82 -277.27 -227.82z" />
    <glyph glyph-name="uni0442" unicode="&#x442;" horiz-adv-x="531" 
d="M512.82 540l0.000976562 -131.28h-175.91v-408.72h-143.19v408.72h-175.9v131.28h495z" />
    <glyph glyph-name="uni0443" unicode="&#x443;" horiz-adv-x="602" 
d="M443.27 540l155.271 0.000976562l-235.36 -532.82c-64.7305 -146.36 -121.641 -201.82 -242.82 -201.82h-60.1797v131.27h50.54c70.3701 0 88.6396 18.7305 121.819 100.37l2.0498 4.37988l-228.77 498.62h158.9l144.05 -332.2z" />
    <glyph glyph-name="uni045E" unicode="&#x45e;" horiz-adv-x="602" 
d="M166.45 617.18v107.45h275.46v-107.45h-275.46zM443.271 540l155.271 0.000976562l-235.36 -532.82c-64.7305 -146.36 -121.641 -201.82 -242.82 -201.82h-60.1797v131.27h50.54c70.3701 0 88.6396 18.7305 121.819 100.37l2.0498 4.37988l-228.77 498.62h158.9
l144.05 -332.2z" />
    <glyph glyph-name="uni0444" unicode="&#x444;" horiz-adv-x="751" 
d="M716.54 268.82c0 -158.21 -115.3 -275.312 -274.91 -283.621v-155.2h-132.09v155.16c-159.25 7.99023 -274.91 125.21 -274.91 283.66c0 157.74 117.99 277.69 274.91 285.99v149.82h132.09v-149.85c157.29 -8.58008 274.91 -127.5 274.91 -285.96zM175.54 268.998
c0 -86.5098 56.6807 -152.761 135.641 -160.591v322.32c-78.1504 -8.12012 -135.641 -76.0498 -135.641 -161.729zM439.181 108.407c79.6504 7.87988 137.271 74.9805 137.271 160.591c0 85.6699 -59.0703 153.6 -137.271 161.729v-322.32z" />
    <glyph glyph-name="uni0445" unicode="&#x445;" horiz-adv-x="545" 
d="M543.72 0h-165.181l-106.82 178.6l-109.72 -178.6h-160.73l183.59 277.29l-171.68 262.71h165.18l93.6104 -156.02l100.12 156.02h160.73l-174.34 -255.24z" />
    <glyph glyph-name="uni0447" unicode="&#x447;" horiz-adv-x="572" 
d="M360.36 540h141.361v-540h-141.36v175.36c-29.9199 -10.1904 -63.8203 -15.8203 -98.8203 -15.8203c-137.63 0 -226.45 87.6396 -226.45 228.55v151.91h143.18v-153.91c0 -66 31.4502 -99.0898 94.3604 -99.0898c30.9502 0 65.3398 8.40039 87.7295 20.8203v232.18z" />
    <glyph glyph-name="uni0446" unicode="&#x446;" horiz-adv-x="651" 
d="M541.91 134.09h69.9102v-258.09h-132.28v124h-409.45v540h143.18v-405.91h185.45v405.91h143.19v-405.91z" />
    <glyph glyph-name="uni0448" unicode="&#x448;" horiz-adv-x="842" 
d="M628.91 540h143.36v-540h-702.18v540h143.18v-405.91h138.55v405.91h138.72v-405.91h138.37v405.91z" />
    <glyph glyph-name="uni0449" unicode="&#x449;" horiz-adv-x="881" 
d="M772.27 134.09h69.9102v-258.09h-132.27v124h-639.82v540h143.18v-405.91h138.55v405.91h138.72v-405.91h138.37v405.91h143.36v-405.91z" />
    <glyph glyph-name="uni045F" unicode="&#x45f;" horiz-adv-x="616" 
d="M545.82 540l-0.000976562 -540h-168v-127.55h-139.55v127.55h-168.18v540h143.18v-405.91h189.36v405.91h143.19z" />
    <glyph glyph-name="uni044C" unicode="&#x44c;" horiz-adv-x="534" 
d="M302.18 391.82c125.64 0 208.09 -79.2812 208.09 -196.001c0 -116.55 -82.4502 -195.819 -208.09 -195.819h-232.09v540h143.18v-148.18h88.9102zM286.91 121.27c49.1797 0 79.4492 28.9102 79.4492 74.5498c0 45.6299 -30.2695 74.7197 -79.4492 74.7197h-73.6396
v-149.27h73.6396z" />
    <glyph glyph-name="uni044A" unicode="&#x44a;" horiz-adv-x="626" 
d="M394.18 391.82c125.64 0 208.089 -79.2812 208.089 -196.001c0 -116.55 -82.4502 -195.819 -208.09 -195.819h-232.09v413.36h-143.27v126.64h286.45v-148.18h88.9102zM378.909 121.27c49.1797 0 79.4492 28.9102 79.4492 74.5498
c0 45.6299 -30.2695 74.7197 -79.4492 74.7197h-73.6396v-149.27h73.6396z" />
    <glyph glyph-name="uni044B" unicode="&#x44b;" horiz-adv-x="816" 
d="M302.18 391.82c125.64 0 208.09 -79.2812 208.09 -196.001c0 -116.55 -82.4502 -195.819 -208.09 -195.819h-232.09v540h143.18v-148.18h88.9102zM599.72 539.999h146v-540h-146v540zM286.91 121.269c49.1797 0 79.4492 28.9102 79.4492 74.5498
c0 45.6299 -30.2695 74.7197 -79.4492 74.7197h-73.6396v-149.27h73.6396z" />
    <glyph glyph-name="uni0459" unicode="&#x459;" horiz-adv-x="865" 
d="M634.27 391.09c125.45 0 207.91 -79.0898 207.91 -195.64c0 -116.36 -82.46 -195.45 -207.91 -195.45h-232.27v413.36h-116.64l-17.9102 -191.82c-15 -166.63 -85.9102 -224.36 -223.73 -224.36h-24.54v131.45h36.0898c40 0 68.5498 27.9102 74.0898 81l37.3604 330.37
h373v-148.91h94.5498zM619.539 120.359c49 0 79.46 29.0908 79.46 75.0908s-30.46 75.2695 -79.46 75.2695h-79.8203v-150.36h79.8203z" />
    <glyph glyph-name="uni045A" unicode="&#x45a;" horiz-adv-x="866" 
d="M635.72 384.72c125.64 0 206.819 -77.8994 206.819 -192.27c0 -114.54 -81.1797 -192.45 -206.819 -192.45h-231.54v216.54h-190.91v-216.54h-143.18v540h143.18v-190.82h190.91v190.82h143.18v-155.28h88.3604zM620.27 121.631
c48.8203 0 78.3604 27.1904 78.3604 70.8203c0 43.46 -29.54 70.6396 -78.3604 70.6396h-72.9102v-141.46h72.9102z" />
    <glyph glyph-name="uni0455" unicode="&#x455;" horiz-adv-x="525" 
d="M261.91 -15.2695c-135.54 0 -226.08 77.3906 -226.811 193.121h142.36c0.730469 -48.0898 37.5508 -72.0898 89.9111 -72.0898c40.54 0 76.8096 18.3604 76.8096 54.4502c0 36.9102 -46.8203 48.0898 -103.91 57.6299c-86.2695 14.3604 -196 37.4502 -196 164.72
c0 102.18 86.9102 172.729 217.271 172.729s215.91 -72.5498 216.46 -180.46h-138.55c-0.549805 42.9102 -30.6396 64.0898 -81.5498 64.0898c-45.4502 0 -72.2705 -20.8203 -72.2705 -51.7305c0 -36 46.0898 -44.3604 102.18 -54.54
c88.0898 -15.8203 200.55 -34.46 200.55 -166.01c0 -110.18 -90.0898 -181.91 -226.45 -181.91z" />
    <glyph glyph-name="uni0454" unicode="&#x454;" horiz-adv-x="623" 
d="M451.91 206.82l145.001 -0.0175781c-27.7305 -131.36 -137.82 -222.091 -275.37 -222.091c-162.45 0 -286.91 125.45 -286.91 287.271c0 160.64 123.46 283.279 286.91 283.279c136.55 0 244.819 -86.7305 273.359 -215.091h-141.36
c-23.0898 50.7305 -74.0898 84.8203 -133.82 84.8203c-66.1504 0 -116.351 -38.3301 -135.48 -97.8203h193.48v-110.36h-194.06c18.8096 -61.2305 69.8799 -101.631 136.06 -101.631c60.7305 0 109.28 35.9102 132.19 91.6406z" />
    <glyph glyph-name="uni044D" unicode="&#x44d;" horiz-adv-x="623" 
d="M301.45 555.27c163.45 0 286.911 -122.622 286.911 -283.262c0 -161.82 -124.46 -287.271 -286.91 -287.271c-137.55 0 -247.64 90.7305 -275.37 222.091h145c22.9102 -55.7305 71.4502 -91.6406 132.181 -91.6406c66.1797 0 117.25 40.4004 136.06 101.631h-194.06
v110.36h193.48c-19.1299 59.4902 -69.3301 97.8203 -135.48 97.8203c-59.7305 0 -110.73 -34.0898 -133.82 -84.8203h-141.36c28.5498 128.36 136.819 215.091 273.369 215.091z" />
    <glyph glyph-name="uni0456" unicode="&#x456;" horiz-adv-x="286" 
d="M70.3604 612v135.73h145.45v-135.73h-145.45zM70.0908 0v540h146v-540h-146z" />
    <glyph glyph-name="uni0457" unicode="&#x457;" horiz-adv-x="286" 
d="M-21.1797 609.54v138.18h131.27v-138.18h-131.27zM175.91 609.359v138.18h131.27v-138.18h-131.27zM70.0898 -0.000976562v540h146v-540h-146z" />
    <glyph glyph-name="uni0458" unicode="&#x458;" horiz-adv-x="298" 
d="M82.5498 612v135.73h145.45v-135.73h-145.45zM-44.4502 -194.63l0.0107422 133.92h47.0898c52.2695 0 79.4492 27.3604 79.4492 79.6299v521.09h146v-532.18c0 -118.82 -83.6396 -202.46 -202.64 -202.46h-69.9102z" />
    <glyph glyph-name="uni045B" unicode="&#x45b;" horiz-adv-x="641" 
d="M379.27 552.82c122.27 0 198.189 -87.1904 198.189 -224.73v-328.09h-146v303.63c0 80.8203 -28.54 121 -94.1797 121c-72.8203 0 -121.181 -53.0898 -121.181 -140.81v-283.82h-146v590.36h-89.7305v95.8203h89.7305v48.4502h146v-48.4502h158.45v-95.8203h-158.45
v-100.46c41 39.0195 98.6904 62.9199 163.171 62.9199z" />
    <glyph glyph-name="uni044E" unicode="&#x44e;" horiz-adv-x="872" 
d="M551.45 555.27c165.55 0 285.999 -121.642 285.999 -285.451c0 -166.1 -119.45 -285.1 -286 -285.1c-141.8 0 -246.359 86.7803 -272.879 217.73h-64.9404v-202.63h-143.54v540.18h143.54v-202.46h65.25c27.2197 129.48 132.71 217.73 272.57 217.73zM551.449 121.178
c81.2695 0 141.27 64 141.27 148.64c0 84.8096 -60.1797 149 -141.27 149c-81.2695 0 -141.27 -64.1904 -141.27 -149c0 -84.6396 60 -148.64 141.27 -148.64z" />
    <glyph glyph-name="uni044F" unicode="&#x44f;" horiz-adv-x="576" 
d="M236.82 540h268.999v-540h-139.91v186.82h-85.2598l-103.29 -186.82h-156l120.78 212.33c-57.8896 31.2803 -91.5996 85 -91.5996 149.85c0 101.09 79.7305 177.82 186.28 177.82zM263.629 298.72l102.28 0.000976562v125.28h-102.28
c-43.1797 0 -68.3594 -26.2803 -68.3594 -62.6406s25.1797 -62.6406 68.3594 -62.6406z" />
    <glyph glyph-name="uni0452" unicode="&#x452;" horiz-adv-x="641" 
d="M379.27 551.82c122.27 0 198.188 -87.1895 198.188 -225.55v-317.36c0 -119.46 -78.6299 -198.91 -198.09 -198.91h-46.7305v130h24.7305c47.2695 0 74.0898 27.6299 74.0898 74.9102v280.36c0 81.8203 -31 121.181 -94.1797 121.181
c-75.2695 0 -121.18 -54.0898 -121.18 -141v-275.45h-146v590.36h-90.0898v95.8203h90.0898v48.4502h146v-48.4502h158.09v-95.8203h-158.09v-101.44c41 38.9697 98.6904 62.8994 163.171 62.8994z" />
    <glyph glyph-name="uni0432.loclBGR" horiz-adv-x="623" 
d="M485.96 388.98c65.0303 -35.4404 101.411 -98.8398 101.411 -174.72c0 -139.45 -117.09 -227.72 -263 -227.72c-164.73 0 -264.641 109.09 -264.641 280.09v208.73c0 167.64 100.27 272.1 260.359 272.1c137.54 0 238 -85.5498 238 -205.819
c0 -58.9805 -25.3096 -113.011 -72.1299 -152.661zM320.091 624.071c-76.2695 0 -118.81 -49.7305 -118.81 -148.73v-32.3604h118.09c66.8203 0 107.91 34.7305 107.91 91c0 55.7305 -41.46 90.0908 -107.19 90.0908zM322.73 118.892
c73.2695 0 121.91 40.7295 121.91 101.55c0 59.1797 -46.2695 97.0898 -117 97.0898h-126.36v-50.9102c0 -98.0898 41 -147.729 121.45 -147.729z" />
    <glyph glyph-name="uni0433.loclBGR" horiz-adv-x="520" 
d="M261.27 -14.5498c-136.73 0 -227.821 68.0898 -227.821 170.18c0 128.09 107.82 152.37 195.271 171.82c59.7305 13.1797 109.641 23.5498 109.641 63.1797c0 29.0898 -28.6396 49.9102 -75.9092 49.9102c-48.8203 0 -76.2705 -23.8203 -76.2705 -68.9102h-130.46
c-0.80957 115.37 82.46 183.28 205.729 183.28c127.73 0 213.82 -66.9102 213.82 -164.28c0 -126.91 -106.27 -149.18 -191.55 -166.18c-57.4502 -11.3604 -106.09 -22.54 -106.09 -62.2705c0 -32.9102 34.6396 -53.5498 83.6396 -53.5498
c53 0 84.6396 26.8203 84.6396 74.7305h139.54c0 -121.73 -91.9102 -197.91 -224.18 -197.91z" />
    <glyph glyph-name="uni0434.loclBGR" horiz-adv-x="671" 
d="M506.09 540l94.5391 -0.0117188v-477.27c0 -169.09 -105.09 -272.63 -275.82 -272.63c-146.27 0 -250.27 74.9102 -275.18 198.271h145.18c16.46 -48.6396 73.6396 -73.3701 127.55 -73.3701c73.7305 0 135.091 47.7305 135.091 126.73v20.0801
c-42.96 -30.46 -95.9199 -48.0801 -154.36 -48.0801c-150.82 0 -268.46 118.46 -268.46 270.28c0 151 117.64 271.27 268.46 271.27c70.3604 0 132.841 -25.8096 179.461 -68.8799zM320.449 144.258c79.6396 0 137.639 58.8203 137.639 139.73
c0 80.2695 -57.1797 139.09 -137.63 139.09c-79.6396 0 -137.819 -59 -137.819 -139.09c0 -80.7305 57.3604 -139.73 137.811 -139.73z" />
    <glyph glyph-name="uni0436.loclBGR" horiz-adv-x="826" 
d="M832.18 0h-168.091l-184.09 250.06v-250.06h-140.55v248.48l-176.73 -248.48h-167.27l203.42 281.1l-182.42 258.9h164.64l158.36 -233.66v428.66h140.55v-431l164.91 236h165.45l-187.09 -258.37z" />
    <glyph glyph-name="uni0437.loclBGR" horiz-adv-x="574" 
d="M443.35 196.32c63.4404 -39.9697 98.9307 -104.489 98.9307 -178.579c0 -131.27 -110.55 -227.819 -259.46 -227.819c-150.27 0 -254.18 96.2695 -256.359 237.09h140.27c2.17969 -58.3604 49.6396 -99 116.09 -99c65.46 0 113.28 41.4502 113.28 100
c0 56.6396 -47 95.7295 -112.73 95.7295h-83.9102l-0.179688 133h78.3604c51.3604 0 90.8105 33.0898 90.8105 79.4502c0 48.3604 -38 81.6299 -92.4502 81.6299c-53.9102 0 -92.7305 -33.7305 -94.1807 -81.9102h-141.36c1.26953 129 97.5391 219.18 235.539 219.18
c136.73 0 238.641 -88.0898 238.641 -208c0 -57.7305 -24.71 -110.23 -71.29 -150.771z" />
    <glyph glyph-name="uni0438.loclBGR" horiz-adv-x="641" 
d="M425.09 540l146 -0.000976562v-540h-105.64l-24.4404 65.0596c-40.9199 -47.71 -104.83 -77.8799 -177.47 -77.8799c-123.09 0 -199.82 88.8203 -199.82 225.54v327.28h146v-303.64c0 -81.6396 30.8203 -121 94.1904 -121c75.2695 0 121.18 53.9102 121.18 140.82v283.82
z" />
    <glyph glyph-name="uni0439.loclBGR" horiz-adv-x="641" 
d="M454.54 724.63v-107.45h-275.45v107.45h275.45zM425.09 540l146 -0.000976562v-540h-105.64l-24.4404 65.0596c-40.9199 -47.71 -104.83 -77.8799 -177.47 -77.8799c-123.09 0 -199.82 88.8203 -199.82 225.54v327.28h146v-303.64c0 -81.6396 30.8203 -121 94.1904 -121
c75.2695 0 121.18 53.9102 121.18 140.82v283.82z" />
    <glyph glyph-name="uni043A.loclBGR" horiz-adv-x="574" 
d="M579.09 0h-176.909l-172.82 258.33v-258.33h-146v734.63h146v-434.57l162.09 239.94h168.18l-182.66 -257.15z" />
    <glyph glyph-name="uni043B.loclBGR" horiz-adv-x="553" 
d="M542.54 0h-148l-118.3 350.8l-120.42 -350.8h-146l199.18 540h135.36z" />
    <glyph glyph-name="uni043F.loclBGR" horiz-adv-x="641" 
d="M377.63 552.82c123.09 0 199.819 -88.8184 199.819 -225.549v-327.27h-146v303.63c0 81.6396 -31 121 -94.1797 121c-75.2695 0 -121.18 -53.9102 -121.18 -140.811v-283.82h-146v540h100.18l28.46 -66.75c40.8604 48.6797 105.41 79.5693 178.9 79.5693z" />
    <glyph glyph-name="uni0442.loclBGR" horiz-adv-x="938" 
d="M684.45 552.82c111.73 0 190.181 -87.6406 190.181 -214.19v-338.63h-146v314.54c0 72.0898 -28.2695 110.09 -81.1797 110.09c-65.1797 0 -103.819 -48 -103.819 -132.54v-292.09h-142.36v314.54c0 72.0898 -27.4502 110.09 -79.7305 110.09
c-66 0 -105.45 -48 -105.45 -132.54v-292.09h-146v540h102l27.3701 -66.9502c38.3301 48.3604 97.4805 79.7705 161.08 79.7705c68.6797 0 125.449 -32.1299 156.759 -86.4102c36.9004 52.4502 98.4307 86.4102 167.15 86.4102z" />
    <glyph glyph-name="uni0446.loclBGR" horiz-adv-x="686" 
d="M571.09 200c0 -72.0898 29.3613 -106.28 89.8213 -106.28v-217.72h-134.09v138.46c-31.5596 9.25 -57.46 32.79 -74 66.79c-41.9502 -57.54 -112.061 -94.0703 -190.91 -94.0703c-121.46 0 -198.19 89.4502 -198.19 227v325.82h146v-301.82
c0 -82.6396 31.8203 -122.819 97.46 -122.819c73.6396 0 117.909 53.2695 117.909 142.64v282h146v-340z" />
    <glyph glyph-name="uni0448.loclBGR" horiz-adv-x="938" 
d="M722.09 540l146 0.00292969v-540h-102.37l-27.2402 67.2002c-38.6504 -48.3701 -98.25 -80.0205 -162.3 -80.0205c-67.1104 0 -122.67 34.5098 -153.96 88.8496c-37.0195 -53.6504 -99.7998 -88.8506 -169.95 -88.8506c-110.91 0 -188.55 87.6396 -188.55 210.909v341.91
h146v-315.37c0 -74.54 25.8203 -109.271 81.1904 -109.271c66 0 103.81 47.1797 103.81 131.729v292.91h142.37v-315.37c0 -73.7197 25.8203 -109.27 79.7305 -109.27c65 0 105.27 49.6396 105.27 131.729v292.91z" />
    <glyph glyph-name="uni0449.loclBGR" horiz-adv-x="983" 
d="M868.27 200c0 -72.46 29.7305 -106.278 89.6406 -106.278v-217.72h-133.91v138c-31.6504 10.1299 -58.6201 34.7803 -74.8105 68.0498c-37.7598 -56.6904 -102.71 -94.8701 -173.01 -94.8701c-67.1104 0 -122.67 34.8398 -153.96 89.8594
c-37.0195 -54.3301 -99.7998 -89.8604 -169.95 -89.8604c-110.91 0 -188.55 88.4502 -188.55 213.36v339.46h146v-315.37c0 -74.54 25.8203 -109.271 81.1904 -109.271c66 0 103.81 47.1797 103.81 131.729v292.91h142.37v-315.37
c0 -73.7197 25.8203 -109.27 79.7305 -109.27c65.1797 0 105.449 49.6396 105.449 131.729v292.91h146v-340z" />
    <glyph glyph-name="uni044E.loclBGR" horiz-adv-x="876" 
d="M551.45 555.27c165.73 0 290.271 -121.64 290.271 -285.449c0 -162.82 -124.36 -285.101 -290.271 -285.101c-140.69 0 -247.311 89.7002 -275.021 217.73h-62.7998v-202.63h-143.54v730.72h143.54v-393h62.8203c27.75 128.52 134.47 217.729 275 217.729zM551.45 122
c83.0898 0 142.271 60.7197 142.271 147.819c0 87.2695 -59.3604 148.18 -142.271 148.18c-83.0898 0 -142.27 -60.9102 -142.27 -148.18c0 -87.0996 59.1797 -147.819 142.27 -147.819z" />
    <glyph glyph-name="uni0436.ss01" horiz-adv-x="824" 
d="M830.91 0h-167.91l-184.09 250.06v-250.06h-140.55v248.48l-176.73 -248.48h-167.09l201.15 280.99l-180.33 259.01h164.64l158.36 -233.66v233.66h140.55v-236l164.91 236h165.45l-185 -258.48z" />
    <glyph glyph-name="uni043A.ss01" horiz-adv-x="560" 
d="M566.36 0h-174.82l-175.45 260.08v-260.08h-146v540h146v-241.75l165.54 241.75h164.73l-182.95 -258.32z" />
    <glyph glyph-name="uni0432.ss02" horiz-adv-x="623" 
d="M485.96 388.98c65.0303 -35.4404 101.411 -98.8398 101.411 -174.72c0 -139.45 -117.09 -227.72 -263 -227.72c-164.73 0 -264.641 109.09 -264.641 280.09v208.73c0 167.64 100.27 272.1 260.359 272.1c137.54 0 238 -85.5498 238 -205.819
c0 -58.9805 -25.3096 -113.011 -72.1299 -152.661zM320.091 624.071c-76.2695 0 -118.81 -49.7305 -118.81 -148.73v-32.3604h118.09c66.8203 0 107.91 34.7305 107.91 91c0 55.7305 -41.46 90.0908 -107.19 90.0908zM322.73 118.892
c73.2695 0 121.91 40.7295 121.91 101.55c0 59.1797 -46.2695 97.0898 -117 97.0898h-126.36v-50.9102c0 -98.0898 41 -147.729 121.45 -147.729z" />
    <glyph glyph-name="uni0433.ss02" horiz-adv-x="520" 
d="M261.27 -14.5498c-136.73 0 -227.821 68.0898 -227.821 170.18c0 128.09 107.82 152.37 195.271 171.82c59.7305 13.1797 109.641 23.5498 109.641 63.1797c0 29.0898 -28.6396 49.9102 -75.9092 49.9102c-48.8203 0 -76.2705 -23.8203 -76.2705 -68.9102h-130.46
c-0.80957 115.37 82.46 183.28 205.729 183.28c127.73 0 213.82 -66.9102 213.82 -164.28c0 -126.91 -106.27 -149.18 -191.55 -166.18c-57.4502 -11.3604 -106.09 -22.54 -106.09 -62.2705c0 -32.9102 34.6396 -53.5498 83.6396 -53.5498
c53 0 84.6396 26.8203 84.6396 74.7305h139.54c0 -121.73 -91.9102 -197.91 -224.18 -197.91z" />
    <glyph glyph-name="uni0434.ss02" horiz-adv-x="671" 
d="M506.09 540l94.5391 -0.0117188v-477.27c0 -169.09 -105.09 -272.63 -275.82 -272.63c-146.27 0 -250.27 74.9102 -275.18 198.271h145.18c16.46 -48.6396 73.6396 -73.3701 127.55 -73.3701c73.7305 0 135.091 47.7305 135.091 126.73v20.0801
c-42.96 -30.46 -95.9199 -48.0801 -154.36 -48.0801c-150.82 0 -268.46 118.46 -268.46 270.28c0 151 117.64 271.27 268.46 271.27c70.3604 0 132.841 -25.8096 179.461 -68.8799zM320.449 144.258c79.6396 0 137.639 58.8203 137.639 139.73
c0 80.2695 -57.1797 139.09 -137.63 139.09c-79.6396 0 -137.819 -59 -137.819 -139.09c0 -80.7305 57.3604 -139.73 137.811 -139.73z" />
    <glyph glyph-name="uni0436.ss02" horiz-adv-x="826" 
d="M832.18 0h-168.091l-184.09 250.06v-250.06h-140.55v248.48l-176.73 -248.48h-167.27l203.42 281.1l-182.42 258.9h164.64l158.36 -233.66v428.66h140.55v-431l164.91 236h165.45l-187.09 -258.37z" />
    <glyph glyph-name="uni0437.ss02" horiz-adv-x="574" 
d="M443.35 196.32c63.4404 -39.9697 98.9307 -104.489 98.9307 -178.579c0 -131.27 -110.55 -227.819 -259.46 -227.819c-150.27 0 -254.18 96.2695 -256.359 237.09h140.27c2.17969 -58.3604 49.6396 -99 116.09 -99c65.46 0 113.28 41.4502 113.28 100
c0 56.6396 -47 95.7295 -112.73 95.7295h-83.9102l-0.179688 133h78.3604c51.3604 0 90.8105 33.0898 90.8105 79.4502c0 48.3604 -38 81.6299 -92.4502 81.6299c-53.9102 0 -92.7305 -33.7305 -94.1807 -81.9102h-141.36c1.26953 129 97.5391 219.18 235.539 219.18
c136.73 0 238.641 -88.0898 238.641 -208c0 -57.7305 -24.71 -110.23 -71.29 -150.771z" />
    <glyph glyph-name="uni0438.ss02" horiz-adv-x="641" 
d="M425.09 540l146 -0.000976562v-540h-105.64l-24.4404 65.0596c-40.9199 -47.71 -104.83 -77.8799 -177.47 -77.8799c-123.09 0 -199.82 88.8203 -199.82 225.54v327.28h146v-303.64c0 -81.6396 30.8203 -121 94.1904 -121c75.2695 0 121.18 53.9102 121.18 140.82v283.82
z" />
    <glyph glyph-name="uni0439.ss02" horiz-adv-x="641" 
d="M454.54 724.63v-107.45h-275.45v107.45h275.45zM425.09 540l146 -0.000976562v-540h-105.64l-24.4404 65.0596c-40.9199 -47.71 -104.83 -77.8799 -177.47 -77.8799c-123.09 0 -199.82 88.8203 -199.82 225.54v327.28h146v-303.64c0 -81.6396 30.8203 -121 94.1904 -121
c75.2695 0 121.18 53.9102 121.18 140.82v283.82z" />
    <glyph glyph-name="uni043A.ss02" horiz-adv-x="574" 
d="M579.09 0h-176.909l-172.82 258.33v-258.33h-146v734.63h146v-434.57l162.09 239.94h168.18l-182.66 -257.15z" />
    <glyph glyph-name="uni043B.ss02" horiz-adv-x="553" 
d="M542.54 0h-148l-118.3 350.8l-120.42 -350.8h-146l199.18 540h135.36z" />
    <glyph glyph-name="uni043F.ss02" horiz-adv-x="641" 
d="M377.63 552.82c123.09 0 199.819 -88.8184 199.819 -225.549v-327.27h-146v303.63c0 81.6396 -31 121 -94.1797 121c-75.2695 0 -121.18 -53.9102 -121.18 -140.811v-283.82h-146v540h100.18l28.46 -66.75c40.8604 48.6797 105.41 79.5693 178.9 79.5693z" />
    <glyph glyph-name="uni0442.ss02" horiz-adv-x="938" 
d="M684.45 552.82c111.73 0 190.181 -87.6406 190.181 -214.19v-338.63h-146v314.54c0 72.0898 -28.2695 110.09 -81.1797 110.09c-65.1797 0 -103.819 -48 -103.819 -132.54v-292.09h-142.36v314.54c0 72.0898 -27.4502 110.09 -79.7305 110.09
c-66 0 -105.45 -48 -105.45 -132.54v-292.09h-146v540h102l27.3701 -66.9502c38.3301 48.3604 97.4805 79.7705 161.08 79.7705c68.6797 0 125.449 -32.1299 156.759 -86.4102c36.9004 52.4502 98.4307 86.4102 167.15 86.4102z" />
    <glyph glyph-name="uni0446.ss02" horiz-adv-x="686" 
d="M571.09 200c0 -72.0898 29.3613 -106.28 89.8213 -106.28v-217.72h-134.09v138.46c-31.5596 9.25 -57.46 32.79 -74 66.79c-41.9502 -57.54 -112.061 -94.0703 -190.91 -94.0703c-121.46 0 -198.19 89.4502 -198.19 227v325.82h146v-301.82
c0 -82.6396 31.8203 -122.819 97.46 -122.819c73.6396 0 117.909 53.2695 117.909 142.64v282h146v-340z" />
    <glyph glyph-name="uni0448.ss02" horiz-adv-x="938" 
d="M722.09 540l146 0.00292969v-540h-102.37l-27.2402 67.2002c-38.6504 -48.3701 -98.25 -80.0205 -162.3 -80.0205c-67.1104 0 -122.67 34.5098 -153.96 88.8496c-37.0195 -53.6504 -99.7998 -88.8506 -169.95 -88.8506c-110.91 0 -188.55 87.6396 -188.55 210.909v341.91
h146v-315.37c0 -74.54 25.8203 -109.271 81.1904 -109.271c66 0 103.81 47.1797 103.81 131.729v292.91h142.37v-315.37c0 -73.7197 25.8203 -109.27 79.7305 -109.27c65 0 105.27 49.6396 105.27 131.729v292.91z" />
    <glyph glyph-name="uni0449.ss02" horiz-adv-x="983" 
d="M868.27 200c0 -72.46 29.7305 -106.278 89.6406 -106.278v-217.72h-133.91v138c-31.6504 10.1299 -58.6201 34.7803 -74.8105 68.0498c-37.7598 -56.6904 -102.71 -94.8701 -173.01 -94.8701c-67.1104 0 -122.67 34.8398 -153.96 89.8594
c-37.0195 -54.3301 -99.7998 -89.8604 -169.95 -89.8604c-110.91 0 -188.55 88.4502 -188.55 213.36v339.46h146v-315.37c0 -74.54 25.8203 -109.271 81.1904 -109.271c66 0 103.81 47.1797 103.81 131.729v292.91h142.37v-315.37
c0 -73.7197 25.8203 -109.27 79.7305 -109.27c65.1797 0 105.449 49.6396 105.449 131.729v292.91h146v-340z" />
    <glyph glyph-name="uni044E.ss02" horiz-adv-x="876" 
d="M551.45 555.27c165.73 0 290.271 -121.64 290.271 -285.449c0 -162.82 -124.36 -285.101 -290.271 -285.101c-140.69 0 -247.311 89.7002 -275.021 217.73h-62.7998v-202.63h-143.54v730.72h143.54v-393h62.8203c27.75 128.52 134.47 217.729 275 217.729zM551.45 122
c83.0898 0 142.271 60.7197 142.271 147.819c0 87.2695 -59.3604 148.18 -142.271 148.18c-83.0898 0 -142.27 -60.9102 -142.27 -148.18c0 -87.0996 59.1797 -147.819 142.27 -147.819z" />
    <glyph glyph-name="uni0432.ss03" horiz-adv-x="623" 
d="M485.96 388.98c65.0303 -35.4404 101.411 -98.8398 101.411 -174.72c0 -139.45 -117.09 -227.72 -263 -227.72c-164.73 0 -264.641 109.09 -264.641 280.09v208.73c0 167.64 100.27 272.1 260.359 272.1c137.54 0 238 -85.5498 238 -205.819
c0 -58.9805 -25.3096 -113.011 -72.1299 -152.661zM320.091 624.071c-76.2695 0 -118.81 -49.7305 -118.81 -148.73v-32.3604h118.09c66.8203 0 107.91 34.7305 107.91 91c0 55.7305 -41.46 90.0908 -107.19 90.0908zM322.73 118.892
c73.2695 0 121.91 40.7295 121.91 101.55c0 59.1797 -46.2695 97.0898 -117 97.0898h-126.36v-50.9102c0 -98.0898 41 -147.729 121.45 -147.729z" />
    <glyph glyph-name="uni0433.ss03" horiz-adv-x="520" 
d="M261.27 -14.5498c-136.73 0 -227.821 68.0898 -227.821 170.18c0 128.09 107.82 152.37 195.271 171.82c59.7305 13.1797 109.641 23.5498 109.641 63.1797c0 29.0898 -28.6396 49.9102 -75.9092 49.9102c-48.8203 0 -76.2705 -23.8203 -76.2705 -68.9102h-130.46
c-0.80957 115.37 82.46 183.28 205.729 183.28c127.73 0 213.82 -66.9102 213.82 -164.28c0 -126.91 -106.27 -149.18 -191.55 -166.18c-57.4502 -11.3604 -106.09 -22.54 -106.09 -62.2705c0 -32.9102 34.6396 -53.5498 83.6396 -53.5498
c53 0 84.6396 26.8203 84.6396 74.7305h139.54c0 -121.73 -91.9102 -197.91 -224.18 -197.91z" />
    <glyph glyph-name="uni0434.ss03" horiz-adv-x="671" 
d="M506.09 540l94.5391 -0.0117188v-477.27c0 -169.09 -105.09 -272.63 -275.82 -272.63c-146.27 0 -250.27 74.9102 -275.18 198.271h145.18c16.46 -48.6396 73.6396 -73.3701 127.55 -73.3701c73.7305 0 135.091 47.7305 135.091 126.73v20.0801
c-42.96 -30.46 -95.9199 -48.0801 -154.36 -48.0801c-150.82 0 -268.46 118.46 -268.46 270.28c0 151 117.64 271.27 268.46 271.27c70.3604 0 132.841 -25.8096 179.461 -68.8799zM320.449 144.258c79.6396 0 137.639 58.8203 137.639 139.73
c0 80.2695 -57.1797 139.09 -137.63 139.09c-79.6396 0 -137.819 -59 -137.819 -139.09c0 -80.7305 57.3604 -139.73 137.811 -139.73z" />
    <glyph glyph-name="uni0436.ss03" horiz-adv-x="824" 
d="M830.91 0h-167.91l-184.09 250.06v-250.06h-140.55v248.48l-176.73 -248.48h-167.09l201.15 280.99l-180.33 259.01h164.64l158.36 -233.66v428.29h140.55v-430.63l164.91 236h165.45l-185 -258.48z" />
    <glyph glyph-name="uni0437.ss03" horiz-adv-x="574" 
d="M443.35 196.32c63.4404 -39.9697 98.9307 -104.489 98.9307 -178.579c0 -131.27 -110.55 -227.819 -259.46 -227.819c-150.27 0 -254.18 96.2695 -256.359 237.09h140.27c2.17969 -58.3604 49.6396 -99 116.09 -99c65.46 0 113.28 41.4502 113.28 100
c0 56.6396 -47 95.7295 -112.73 95.7295h-83.9102l-0.179688 133h78.3604c51.3604 0 90.8105 33.0898 90.8105 79.4502c0 48.3604 -38 81.6299 -92.4502 81.6299c-53.9102 0 -92.7305 -33.7305 -94.1807 -81.9102h-141.36c1.26953 129 97.5391 219.18 235.539 219.18
c136.73 0 238.641 -88.0898 238.641 -208c0 -57.7305 -24.71 -110.23 -71.29 -150.771z" />
    <glyph glyph-name="uni0438.ss03" horiz-adv-x="641" 
d="M425.09 540l146 -0.000976562v-540h-105.64l-24.4404 65.0596c-40.9199 -47.71 -104.83 -77.8799 -177.47 -77.8799c-123.09 0 -199.82 88.8203 -199.82 225.54v327.28h146v-303.64c0 -81.6396 30.8203 -121 94.1904 -121c75.2695 0 121.18 53.9102 121.18 140.82v283.82
z" />
    <glyph glyph-name="uni0439.ss03" horiz-adv-x="641" 
d="M454.54 724.63v-107.45h-275.45v107.45h275.45zM425.09 540l146 -0.000976562v-540h-105.64l-24.4404 65.0596c-40.9199 -47.71 -104.83 -77.8799 -177.47 -77.8799c-123.09 0 -199.82 88.8203 -199.82 225.54v327.28h146v-303.64c0 -81.6396 30.8203 -121 94.1904 -121
c75.2695 0 121.18 53.9102 121.18 140.82v283.82z" />
    <glyph glyph-name="uni043A.ss03" horiz-adv-x="560" 
d="M566.36 0h-174.82l-175.45 260.08v-260.08h-146v734.63h146v-436.38l165.54 241.75h164.73l-182.95 -258.32z" />
    <glyph glyph-name="uni043B.ss03" horiz-adv-x="553" 
d="M542.54 0h-148l-118.3 350.8l-120.42 -350.8h-146l199.18 540h135.36z" />
    <glyph glyph-name="uni043F.ss03" horiz-adv-x="641" 
d="M377.63 552.82c123.09 0 199.819 -88.8184 199.819 -225.549v-327.27h-146v303.63c0 81.6396 -31 121 -94.1797 121c-75.2695 0 -121.18 -53.9102 -121.18 -140.811v-283.82h-146v540h100.18l28.46 -66.75c40.8604 48.6797 105.41 79.5693 178.9 79.5693z" />
    <glyph glyph-name="uni0442.ss03" horiz-adv-x="938" 
d="M684.45 552.82c111.73 0 190.181 -87.6406 190.181 -214.19v-338.63h-146v314.54c0 72.0898 -28.2695 110.09 -81.1797 110.09c-65.1797 0 -103.819 -48 -103.819 -132.54v-292.09h-142.36v314.54c0 72.0898 -27.4502 110.09 -79.7305 110.09
c-66 0 -105.45 -48 -105.45 -132.54v-292.09h-146v540h102l27.3701 -66.9502c38.3301 48.3604 97.4805 79.7705 161.08 79.7705c68.6797 0 125.449 -32.1299 156.759 -86.4102c36.9004 52.4502 98.4307 86.4102 167.15 86.4102z" />
    <glyph glyph-name="uni0446.ss03" horiz-adv-x="686" 
d="M571.09 200c0 -72.0898 29.3613 -106.28 89.8213 -106.28v-217.72h-134.09v138.46c-31.5596 9.25 -57.46 32.79 -74 66.79c-41.9502 -57.54 -112.061 -94.0703 -190.91 -94.0703c-121.46 0 -198.19 89.4502 -198.19 227v325.82h146v-301.82
c0 -82.6396 31.8203 -122.819 97.46 -122.819c73.6396 0 117.909 53.2695 117.909 142.64v282h146v-340z" />
    <glyph glyph-name="uni0448.ss03" horiz-adv-x="938" 
d="M722.09 540l146 0.00292969v-540h-102.37l-27.2402 67.2002c-38.6504 -48.3701 -98.25 -80.0205 -162.3 -80.0205c-67.1104 0 -122.67 34.5098 -153.96 88.8496c-37.0195 -53.6504 -99.7998 -88.8506 -169.95 -88.8506c-110.91 0 -188.55 87.6396 -188.55 210.909v341.91
h146v-315.37c0 -74.54 25.8203 -109.271 81.1904 -109.271c66 0 103.81 47.1797 103.81 131.729v292.91h142.37v-315.37c0 -73.7197 25.8203 -109.27 79.7305 -109.27c65 0 105.27 49.6396 105.27 131.729v292.91z" />
    <glyph glyph-name="uni0449.ss03" horiz-adv-x="983" 
d="M868.27 200c0 -72.46 29.7305 -106.278 89.6406 -106.278v-217.72h-133.91v138c-31.6504 10.1299 -58.6201 34.7803 -74.8105 68.0498c-37.7598 -56.6904 -102.71 -94.8701 -173.01 -94.8701c-67.1104 0 -122.67 34.8398 -153.96 89.8594
c-37.0195 -54.3301 -99.7998 -89.8604 -169.95 -89.8604c-110.91 0 -188.55 88.4502 -188.55 213.36v339.46h146v-315.37c0 -74.54 25.8203 -109.271 81.1904 -109.271c66 0 103.81 47.1797 103.81 131.729v292.91h142.37v-315.37
c0 -73.7197 25.8203 -109.27 79.7305 -109.27c65.1797 0 105.449 49.6396 105.449 131.729v292.91h146v-340z" />
    <glyph glyph-name="uni044E.ss03" horiz-adv-x="876" 
d="M551.45 555.27c165.73 0 290.271 -121.64 290.271 -285.449c0 -162.82 -124.36 -285.101 -290.271 -285.101c-140.69 0 -247.311 89.7002 -275.021 217.73h-62.7998v-202.63h-143.54v730.72h143.54v-393h62.8203c27.75 128.52 134.47 217.729 275 217.729zM551.45 122
c83.0898 0 142.271 60.7197 142.271 147.819c0 87.2695 -59.3604 148.18 -142.271 148.18c-83.0898 0 -142.27 -60.9102 -142.27 -148.18c0 -87.0996 59.1797 -147.819 142.27 -147.819z" />
    <glyph glyph-name="uni0436.ss04" horiz-adv-x="824" 
d="M830.91 0h-167.91l-184.09 250.06v-250.06h-140.55v248.48l-176.73 -248.48h-167.09l201.15 280.99l-180.33 259.01h164.64l158.36 -233.66v233.66h140.55v-236l164.91 236h165.45l-185 -258.48z" />
    <glyph glyph-name="uni043A.ss04" horiz-adv-x="560" 
d="M566.36 0h-174.82l-175.45 260.08v-260.08h-146v540h146v-241.75l165.54 241.75h164.73l-182.95 -258.32z" />
    <glyph glyph-name="Alpha" unicode="&#x391;" horiz-adv-x="718" 
d="M544.82 0l-48.8691 132.72h-278.56l-48.0303 -132.72h-160.73l274.37 700h143l283.18 -700h-164.36zM356.011 515.01l-91.3701 -250.29h183.68z" />
    <glyph glyph-name="Beta" unicode="&#x392;" horiz-adv-x="642" 
d="M501.1 369.18c61.8203 -32.4199 96.9082 -93.1699 96.9082 -167.189c0 -112.27 -98.7305 -202 -220.37 -202h-297.55v700h289.45c120.73 0 210.461 -77 210.461 -180c0 -60.1699 -29.5898 -116.28 -78.8994 -150.811zM433.107 496.359
c0 43.9102 -30.46 74.6289 -78 74.6289h-126.18v-149.27h126.18c47.7305 0 78 30.9102 78 74.6406zM363.377 138.987c49.8203 0 82.6309 32.9102 82.6309 78.9102c0 45 -32.8203 78.0898 -82.6406 78.0898h-134.45v-157h134.46z" />
    <glyph glyph-name="Gamma" unicode="&#x393;" horiz-adv-x="500" 
d="M477.72 700v-140.55h-246.18v-559.45h-151.45v700h397.63z" />
    <glyph glyph-name="uni0394" unicode="&#x394;" horiz-adv-x="720" 
d="M422.36 700l292.271 -700h-704.81l281.27 700h131.27zM357.631 491.1l-128.65 -350.56h257.23z" />
    <glyph glyph-name="Epsilon" unicode="&#x395;" horiz-adv-x="559" 
d="M231.54 140.91l279.82 -0.000976562v-140.91h-431.27v700h420.27v-139.91h-268.82v-138.27h242.82v-137.1h-242.82v-143.81z" />
    <glyph glyph-name="Zeta" unicode="&#x396;" horiz-adv-x="583" 
d="M254.38 140.54h300.979v-140.54h-529.36v22.54l292.08 536.91h-275.26v140.55h500.9v-27.8203z" />
    <glyph glyph-name="Eta" unicode="&#x397;" horiz-adv-x="727" 
d="M495 700h151.45v-700h-151.45v289.45h-263.46v-289.45h-151.45v700h151.45v-269.64h263.46v269.64z" />
    <glyph glyph-name="Theta" unicode="&#x398;" horiz-adv-x="825" 
d="M412.36 -15.2803c-213.91 0 -372.73 155.819 -372.73 365.1c0 209.45 158.82 365.45 372.73 365.45c214.09 0 372.729 -155.82 372.729 -365.45c0 -209.46 -158.64 -365.1 -372.729 -365.1zM412.36 127.629c125.18 0 219.269 94.5498 219.269 222.37
s-94.0898 222.36 -219.27 222.36s-219.27 -94.7305 -219.27 -222.36c0 -127.82 92.4502 -222.37 219.271 -222.37zM272.819 285.359v133.73h279.36v-133.73h-279.36z" />
    <glyph glyph-name="Iota" unicode="&#x399;" horiz-adv-x="312" 
d="M80.0898 0v700h151.45v-700h-151.45z" />
    <glyph glyph-name="Kappa" unicode="&#x39a;" horiz-adv-x="656" 
d="M663.54 0h-184.82l-247.18 341.61v-341.61h-151.45v700h151.45v-323.32l229.46 323.32h176.54l-238.15 -335.39z" />
    <glyph glyph-name="Lambda" unicode="&#x39b;" horiz-adv-x="693" 
d="M681.82 0h-164.37l-170.59 500.19l-177.14 -500.19h-158.9l264 700h143z" />
    <glyph glyph-name="Mu" unicode="&#x39c;" horiz-adv-x="975" 
d="M937.91 0h-154.279l-69.0303 456.8l-208.69 -455.53h-37.2803l-208.72 455.44l-69.1904 -456.71h-154.27l109.64 700h151.73l189.31 -429.14l190.23 429.14h152.09z" />
    <glyph glyph-name="Nu" unicode="&#x39d;" horiz-adv-x="752" 
d="M523.72 700h148.639v-700h-126.64l-317 437.47v-437.47h-148.63v700h136.73l306.9 -426.93v426.93z" />
    <glyph glyph-name="Xi" unicode="&#x39e;" horiz-adv-x="568" 
d="M55.3604 553v147h457.36v-147h-457.36zM94.3604 283.91v140.91h379.36v-140.91h-379.36zM47.3604 0v149.63h472.36v-149.63h-472.36z" />
    <glyph glyph-name="Omicron" unicode="&#x39f;" horiz-adv-x="823" 
d="M412.36 -15.2695c-213.64 0 -373.55 157.458 -373.55 365.278s159.91 365.28 373.55 365.28c212.82 0 371.91 -156.64 371.91 -365.279s-159.09 -365.279 -371.91 -365.279zM412.36 127.639c124.73 0 218.461 95.3604 218.461 222.36s-93.7305 222.36 -218.461 222.36
s-220.091 -96.3604 -220.091 -222.36s95.3604 -222.36 220.091 -222.36z" />
    <glyph glyph-name="Pi" unicode="&#x3a0;" horiz-adv-x="705" 
d="M80.0898 700h545.09v-700h-151.64v559.45h-242v-559.45h-151.45v700z" />
    <glyph glyph-name="Rho" unicode="&#x3a1;" horiz-adv-x="622" 
d="M349.45 700c140.37 0 247.09 -102.55 247.09 -240.729c0 -138 -106.54 -240.73 -247.09 -240.73h-117.91v-218.54h-151.45v700h269.36zM342.82 358.82c60.0898 0 100.27 42.2715 100.27 100.451s-40.1797 100.449 -100.27 100.449h-111.28v-200.9h111.28z" />
    <glyph glyph-name="Sigma" unicode="&#x3a3;" horiz-adv-x="573" 
d="M270.48 140.54l261.061 -0.000976562v-140.54h-515.45v26.7197l237.54 328.2l-231.54 318.35v26.7305h500.45v-140.55h-243.7l141.88 -195v-18.2695z" />
    <glyph glyph-name="Tau" unicode="&#x3a4;" horiz-adv-x="584" 
d="M562.54 700v-140.55h-194.63v-559.45h-151.46v559.45h-194.63v140.55h540.72z" />
    <glyph glyph-name="Upsilon" unicode="&#x3a5;" horiz-adv-x="679" 
d="M663 700l-246.37 -417.49v-282.51h-155.27v283.53l-244.36 416.47h161.27l161.65 -280.12l161.8 280.12h161.28z" />
    <glyph glyph-name="Phi" unicode="&#x3a6;" horiz-adv-x="896" 
d="M855.45 351.82c0 -177.33 -112.65 -349.23 -333.181 -365.641v-105.82h-147.82v105.85c-219.64 16.5303 -334 188.221 -334 362.791c0 175.51 114.36 348.149 334 364.779v91.4004h147.82v-91.3496c220.53 -16.1699 333.181 -185.64 333.181 -362.01zM520.63 127.17
c119.35 16.04 182.189 118.239 182.189 222.829c0 103.66 -62.8398 205.101 -182.189 221.021v-443.85zM193.91 349.999c0 -104.53 62.9199 -206.689 182.18 -222.8v443.8c-119.26 -16 -182.18 -117.39 -182.18 -221z" />
    <glyph glyph-name="Chi" unicode="&#x3a7;" horiz-adv-x="625" 
d="M622.18 0h-170l-138.14 240.47l-139.95 -240.47h-170.18l217.66 367.41l-203.75 332.59h170l125.02 -215.84l126.07 215.84h165.91l-200.99 -338.18z" />
    <glyph glyph-name="Psi" unicode="&#x3a8;" horiz-adv-x="817" 
d="M617.36 700h151.46v-262.46c0 -160 -118.19 -272.91 -283.641 -272.91h-1v-164.63h-151.64v164.63h-1c-165.45 0 -283.63 112.91 -283.63 272.91v262.46h151.45v-253.91c0 -85.1797 50.8203 -135.18 134.82 -135.18h1.17969v389.09h146v-389.09h1.17969
c84 0 134.82 50 134.82 135.18v253.91z" />
    <glyph glyph-name="uni03A9" unicode="&#x3a9;" horiz-adv-x="866" 
d="M703.19 140.54h108.17v-140.54h-323.64v136.09c100.19 43.0898 160.101 129 160.101 229.82c0 115.54 -95.0996 206.45 -215 206.45c-119.73 0 -214.82 -90.9102 -214.82 -206.45c0 -100.82 59.9102 -186.73 159.91 -229.82v-136.09h-323.64v140.54h108.25
c-64.0303 68.4805 -99.6104 149.82 -99.6104 237.28c0 189.09 163.27 337.45 369.909 337.45c206.63 0 370.09 -148.36 370.09 -337.45c0 -88.3604 -35.2695 -169.061 -99.7197 -237.28z" />
    <glyph glyph-name="Alphatonos" unicode="&#x386;" horiz-adv-x="718" 
d="M544.82 0l-48.8691 132.72h-278.56l-48.0303 -132.72h-160.73l274.37 700h143l283.18 -700h-164.36zM16.6309 549.819l55.2793 150.18h155.45l-100.27 -150.18h-110.46zM356.01 515.009l-91.3701 -250.29h183.68z" />
    <glyph glyph-name="Epsilontonos" unicode="&#x388;" horiz-adv-x="559" 
d="M-147.28 549.82l55.2793 150.18h155.45l-100.27 -150.18h-110.46zM231.539 140.91l279.82 -0.000976562v-140.91h-431.27v700h420.27v-139.91h-268.82v-138.27h242.82v-137.1h-242.82v-143.81z" />
    <glyph glyph-name="Etatonos" unicode="&#x389;" horiz-adv-x="727" 
d="M-147.28 549.82l55.2793 150.18h155.45l-100.27 -150.18h-110.46zM494.999 700h151.45v-700h-151.45v289.45h-263.46v-289.45h-151.45v700h151.45v-269.64h263.46v269.64z" />
    <glyph glyph-name="Iotatonos" unicode="&#x38a;" horiz-adv-x="312" 
d="M-147.64 549.82l55.2695 150.18h155.46l-100.27 -150.18h-110.46zM80.0898 0v700h151.45v-700h-151.45z" />
    <glyph glyph-name="Omicrontonos" unicode="&#x38c;" horiz-adv-x="823" 
d="M412.36 -15.2695c-213.64 0 -373.55 157.458 -373.55 365.278s159.91 365.28 373.55 365.28c212.82 0 371.91 -156.64 371.91 -365.279s-159.09 -365.279 -371.91 -365.279zM-62.0996 549.818l55.2793 150.18h155.45l-100.27 -150.18h-110.46zM412.359 127.638
c124.73 0 218.461 95.3604 218.461 222.36s-93.7305 222.36 -218.461 222.36s-220.091 -96.3604 -220.091 -222.36s95.3604 -222.36 220.091 -222.36z" />
    <glyph glyph-name="Upsilontonos" unicode="&#x38e;" horiz-adv-x="679" 
d="M501.72 700h161.28l-246.37 -417.49v-282.51h-155.27v283.53l-243.04 414.22l-98.7803 -147.93h-110.45l55.2695 150.18h313.91l161.65 -280.12z" />
    <glyph glyph-name="Omegatonos" unicode="&#x38f;" horiz-adv-x="866" 
d="M703.19 140.54h108.17v-140.54h-323.64v136.09c100.19 43.0898 160.101 129 160.101 229.82c0 115.54 -95.0996 206.45 -215 206.45c-119.73 0 -214.82 -90.9102 -214.82 -206.45c0 -100.82 59.9102 -186.73 159.91 -229.82v-136.09h-323.64v140.54h108.25
c-64.0303 68.4805 -99.6104 149.82 -99.6104 237.28c0 189.09 163.27 337.45 369.909 337.45c206.63 0 370.09 -148.36 370.09 -337.45c0 -88.3604 -35.2695 -169.061 -99.7197 -237.28zM164.45 700l-100.271 -150.18h-110.46l55.2803 150.18h155.45z" />
    <glyph glyph-name="Iotadieresis" unicode="&#x3aa;" horiz-adv-x="312" 
d="M-10.1797 768.45v134.91h139v-134.91h-139zM183 768.45v134.91h139v-134.91h-139zM80.0898 0v700h151.45v-700h-151.45z" />
    <glyph glyph-name="Upsilondieresis" unicode="&#x3ab;" horiz-adv-x="679" 
d="M146.09 768.46v134.91h154.73v-134.91h-154.73zM379.82 768.46v134.91h154.73v-134.91h-154.73zM663 700.01l-246.369 -417.49v-282.51h-155.27v283.54l-244.36 416.46h161.27l161.65 -280.12l161.81 280.12h161.27z" />
    <glyph glyph-name="alpha" unicode="&#x3b1;" horiz-adv-x="690" 
d="M510.91 540.82l108.981 -0.00976562v-540h-114.45l-12.5498 48.3096c-46.3701 -40.5996 -106.87 -64.3994 -174.99 -64.3994c-162.45 0 -283.271 122.64 -283.271 286.09c0 162.82 120.82 284.46 283.271 284.46c69.3096 0 130.729 -24.4297 177.409 -66.0498z
M329.802 122.811c84.8203 0 147 63.1797 147 148s-62.1797 148 -147 148s-147.181 -63.3604 -147.181 -148s62.3604 -148 147.181 -148z" />
    <glyph glyph-name="beta" unicode="&#x3b2;" horiz-adv-x="621" 
d="M480.7 388.31c68.2695 -34.2803 104.02 -92.7803 104.02 -172.221c0 -131.82 -104.72 -222.37 -257.359 -222.37c-43.6904 0 -81.0908 7.53027 -111.271 21.3701v-207.55h-146v667.46c0 168 93.9102 271.63 249.54 271.63c128.09 0 236.82 -80.3604 236.82 -207.63
c0 -62.75 -25.6699 -114.59 -75.75 -150.689zM324.91 126.09c74.54 0 117.631 38.9102 117.631 98c0 58.4502 -44.2695 93.4502 -112.359 93.4502h-62.6396v124.73h57.1797c59.0996 0 101.279 37.1797 101.279 89.4492c0 57 -49 92.46 -101.91 92.46
c-74.2695 0 -108 -54.46 -108 -149.18v-325.71c33.04 -14.4805 74.4697 -23.2002 108.819 -23.2002z" />
    <glyph glyph-name="gamma" unicode="&#x3b3;" horiz-adv-x="583" 
d="M575.27 540l-207.73 -509.76v-224.33h-144v222.85l-216.72 511.24h154.45l134.05 -347.98l125.5 347.98h154.45z" />
    <glyph glyph-name="delta" unicode="&#x3b4;" horiz-adv-x="624" 
d="M318.44 581.54c168.04 -76.8203 272.38 -194.561 272.38 -328.36c0 -150.46 -118.91 -268.46 -278.91 -268.46c-161.19 0 -278.28 114.1 -278.28 268.64c0 138.18 113.19 239.55 244.19 239.55c2.74023 0 5.4502 -0.0498047 8.12988 -0.149414
c-67.4004 40.0596 -143.221 72.0195 -224.23 95.5098v123.73h477.19v-130.46h-220.47zM312.721 118c79.9102 0 135.101 56.8203 135.101 135.36c0 79.5498 -56.1904 136.359 -135.101 136.359c-79.0898 0 -134.899 -56.8096 -134.899 -136.359
c0 -78.54 55.8096 -135.36 134.899 -135.36z" />
    <glyph glyph-name="epsilon" unicode="&#x3b5;" horiz-adv-x="503" 
d="M345.18 183.45h132.818c-1.63965 -119.82 -89.1797 -197.91 -220.55 -197.91c-130.36 0 -221.45 76.5498 -221.45 186.18c0 54.0195 21.8398 91.6992 69.5801 119.169c-37.6299 27.8496 -53.1299 58.5693 -53.1299 100.47c0 95.1797 85.2695 163.09 204.46 163.09
c122.72 0 207.45 -69 208.91 -172.09h-132.46c-3.08984 38.6396 -30.1797 61.0898 -72.6396 61.0898c-44.3604 0 -69.54 -21.3604 -69.54 -55.6299c0 -32.0996 23.7305 -50.8193 66.2705 -50.8193h58.1797v-105h-58.1797c-48.54 0 -78.0898 -22.0898 -78.0898 -57.5498
c0 -37.6299 31 -60.7295 78.0898 -60.7295c53.7305 0 85.8203 26.2803 87.7305 69.7305z" />
    <glyph glyph-name="zeta" unicode="&#x3b6;" horiz-adv-x="516" 
d="M516.27 671.18c-221.09 -172.27 -331.999 -318.359 -331.999 -426.359c0 -191.37 318.09 -77.2803 318.09 -324.73c0 -32.0898 -5 -72.5498 -15.8203 -114.729h-139.72c8.17969 32.0898 12.1797 61.6396 12.1797 80.6396c0 163.54 -323.55 53.1797 -323.55 337.819
c0 135.65 83.79 252.45 226.21 370.271h-199.03v140.54h453.64v-63.4502z" />
    <glyph glyph-name="eta" unicode="&#x3b7;" horiz-adv-x="641" 
d="M379.27 555.27c122.27 0 198.181 -87.1787 198.181 -225.549v-524.36h-146v493.36c0 81.6396 -31 121 -94.1797 121c-75.2695 0 -121.18 -53.9004 -121.18 -140.811v-278.91h-146v540h100.18l28.1299 -65.9697c41.1396 49.7197 106.479 81.2393 180.869 81.2393z" />
    <glyph glyph-name="theta" unicode="&#x3b8;" horiz-adv-x="704" 
d="M351.27 720c195.36 0 310.271 -156.73 310.271 -367.641s-114.91 -367.641 -310.271 -367.641c-197.18 0 -310.09 157.73 -310.09 367.641s112.91 367.641 310.09 367.641zM351.27 582.72c-89 0 -144.95 -61.8799 -159.99 -168.36h320.1
c-15.2402 106.48 -71.7998 168.36 -160.109 168.36zM351.27 122c87.3096 0 144.399 63.6699 159.97 168.72h-319.86c15.2402 -105.05 71.3506 -168.72 159.891 -168.72z" />
    <glyph glyph-name="iota" unicode="&#x3b9;" horiz-adv-x="357" 
d="M273 -3c-129.91 0 -208.28 75.54 -208.28 201.82v341.18h146v-332.18c0 -52.2803 30.1904 -80.6406 85.2803 -80.6406h46.8203v-130.18h-69.8203z" />
    <glyph glyph-name="kappa" unicode="&#x3ba;" horiz-adv-x="560" 
d="M565.82 0h-176.101l-173.63 258.4v-258.4h-146v540h146v-240.09l163.73 240.09h166.54l-183.03 -258.39z" />
    <glyph glyph-name="lambda" unicode="&#x3bb;" horiz-adv-x="583" 
d="M571.72 0h-155.631l-123.46 319.08l-134 -319.08h-155l219.54 497.34c-27.6797 70.7402 -49.2393 104.11 -106.169 104.11h-40v129.37h50c113.45 0 171.72 -52 229.72 -203.37z" />
    <glyph glyph-name="uni03BC" unicode="&#x3bc;" horiz-adv-x="660" 
d="M443.91 540l145.998 0.000976562v-540h-95.5498l-32.54 76.1201c-41.54 -53.3604 -101.59 -83.0303 -170.189 -83.0303c-29.5303 0 -57.1201 6.05957 -78.3604 18.7295v-206.46h-143.18v734.64h146v-272.28c0 -91.3604 29.8203 -131.63 96.1807 -131.63
c77.9102 0 131.641 59.2695 131.641 147v256.91z" />
    <glyph glyph-name="nu" unicode="&#x3bd;" horiz-adv-x="584" 
d="M424.36 540h151.271l-214.54 -540h-134.73l-219.73 540h155.73l132.17 -361.8z" />
    <glyph glyph-name="xi" unicode="&#x3be;" horiz-adv-x="531" 
d="M336.82 99.4502c86.3604 -30 179.45 -62.6182 179.45 -179.349c0 -30.9102 -6 -74.1797 -16.8203 -114.729h-148.63c8.80957 25.46 13 54.5498 13 80.8193c0 64.8203 -58.1904 89 -135 117.27c-99.8203 36.0898 -192 77.0898 -192 205.18
c0 80.6699 43.3398 142 111.92 178c-58.8604 34.9297 -90.4707 87.9102 -90.4707 150.811c0 116.27 105 202.369 244.36 202.369c137.28 0 234.37 -84.5498 235.82 -206.55h-145c-1.62988 50.2695 -37.6299 83.6396 -90.8203 83.6396
c-54.2695 0 -91.0898 -33.9102 -91.0898 -84.0898c0 -50.2803 36.9102 -87.46 92.46 -87.46h65.1797v-121.27h-67c-69.6396 0 -108.27 -44.3701 -108.27 -100.73c0 -74.2695 68.9102 -98.1797 142.91 -123.91z" />
    <glyph glyph-name="omicron" unicode="&#x3bf;" horiz-adv-x="653" 
d="M326.55 -15.2695c-167.27 0 -291.909 122.449 -291.909 285.27c0 163.82 124.64 285.28 291.909 285.28c166.45 0 291.91 -121.64 291.91 -285.279c0 -162.82 -125.46 -285.271 -291.91 -285.271zM326.55 121.999c84.1797 0 143.91 60.54 143.91 148
c0 87.4502 -59.7305 148 -143.91 148s-143.91 -60.5498 -143.91 -148c0 -87.46 59.7305 -148 143.91 -148z" />
    <glyph glyph-name="pi" unicode="&#x3c0;" horiz-adv-x="628" 
d="M70.0898 540h488.18v-540h-145v407.72h-198v-407.72h-145.18v540z" />
    <glyph glyph-name="rho" unicode="&#x3c1;" horiz-adv-x="668" 
d="M346.09 554.27c164.09 0 287.181 -121.82 287.181 -284.271c0 -163.28 -126.36 -284.46 -282.551 -284.46c-51.8799 0 -105.42 16.6504 -145 46.2402v-226.42h-148v453.55c0 179.45 122.55 295.36 288.37 295.36zM345.091 122.819
c84.6299 0 143.82 59.7197 143.82 147.18c0 87.2695 -58.3701 147 -143.82 147c-85.46 0 -143 -59.7305 -143 -147c0 -86.6396 58.54 -147.18 143 -147.18z" />
    <glyph glyph-name="uni03C2" unicode="&#x3c2;" horiz-adv-x="604" 
d="M408.18 -194.64c8 32.0898 12.1807 61.8203 12.1807 80.8203c0 70.4502 -64.9102 87.1807 -141.18 108.541c-109 30.5498 -242.73 67.46 -242.73 278.729c0 159.91 121.82 280 283.641 280c139.63 0 249.54 -85.8203 271.18 -219.73h-145
c-27.2695 58.5498 -72.4492 82.2803 -127.18 82.2803c-76.7305 0 -134.641 -61.46 -134.641 -143.37c0 -116.63 89.5498 -140.91 181.64 -165.18c97.3604 -25.54 197.45 -50.9102 197.45 -187.36c0 -31.7305 -6 -74.1807 -15.8203 -114.73h-139.54z" />
    <glyph glyph-name="sigma" unicode="&#x3c3;" horiz-adv-x="688" 
d="M663.27 541l-0.000976562 -131.461h-100.89c32.1104 -42.4502 50.71 -93.2998 50.71 -145.359c0 -141.18 -101.64 -277.819 -287.729 -277.819c-166.45 0 -290.73 120.64 -290.73 282.729c0 155.54 124.28 271.91 291.28 271.91h337.36zM324.358 123.629
c85.8203 0 143.551 58.3701 143.551 145.64c0 86.7305 -57.7305 145.091 -143.551 145.091s-143.54 -58.3604 -143.54 -145.091c0 -87.2695 57.7197 -145.64 143.54 -145.64z" />
    <glyph glyph-name="tau" unicode="&#x3c4;" horiz-adv-x="487" 
d="M445.18 408.72h-137.909v-200.9c0 -52.2803 30.1797 -80.6406 85.2695 -80.6406h46.8203v-130.18h-69.8203c-129.91 0 -208.271 75.54 -208.271 201.82v209.9h-145.45v131.28h429.36v-131.28z" />
    <glyph glyph-name="upsilon" unicode="&#x3c5;" horiz-adv-x="633" 
d="M316.82 -15.2803c-152.55 0 -254.1 97.46 -254.1 243.28v312h146v-295.37c0 -76.8096 40.6396 -122.63 108.1 -122.63c67.6299 0 107.27 46.8203 107.27 122.63v295.37h146v-312c0 -145.82 -100.55 -243.28 -253.27 -243.28z" />
    <glyph glyph-name="phi" unicode="&#x3c6;" horiz-adv-x="766" 
d="M730.91 264.36c0 -154.22 -111.44 -265.931 -274.641 -275.511v-179.4h-143.18v179.24c-161.05 8.54004 -278.46 124.43 -278.46 275.67c0 124.82 76.8203 228.641 199.641 269.641l39.9102 -121.37c-59.6396 -25.4502 -96.1797 -74.8105 -96.1797 -148.271
c0 -77.2998 56.3896 -135.6 136.72 -143.68v419.32h118.55c176 0 297.64 -112 297.64 -275.64zM452.63 120.919c78.25 9.05957 134.91 68.1602 134.91 143.44c0 77.5596 -56.6602 133.71 -134.91 142.31v-285.75z" />
    <glyph glyph-name="chi" unicode="&#x3c7;" horiz-adv-x="545" 
d="M543.72 0h-165.181l-106.82 178.6l-109.72 -178.6h-160.73l183.59 277.29l-171.68 262.71h165.18l93.6104 -156.02l100.12 156.02h160.73l-174.34 -255.24z" />
    <glyph glyph-name="psi" unicode="&#x3c8;" horiz-adv-x="801" 
d="M594.36 540h146v-279c0 -157.82 -109 -272.82 -260 -272.82h-2.36035v-178.73h-155.28v178.73h-2.17969c-151 0 -260 116 -260 272.82v279h146v-286.46c0 -68.2695 53.5498 -126 120.46 -126h1.36035v411.46h144.18v-411.46h3.17969
c65.9102 0 118.641 56.7305 118.641 126v286.46z" />
    <glyph glyph-name="omega" unicode="&#x3c9;" horiz-adv-x="862" 
d="M761.27 540c39 -93.46 60 -188.642 60 -275.642c0 -171.64 -80.2695 -279.449 -206.359 -279.449c-88.6904 0 -157.721 50.4902 -184.121 134.55c-26.5703 -84.0596 -95.7207 -134.55 -184.251 -134.55c-126.09 0 -206.18 107.45 -206.18 279.271
c0 87 20.8203 181.82 59.8203 275.82h152.64c-41.8203 -82.5498 -65.6406 -177.91 -65.6406 -259.28c0 -98.4502 33.9102 -157.9 89.6406 -157.9c52.0898 0 86.4502 49.54 86.4502 126.63v180.37h134.91v-180.37c0 -77.0898 34.3604 -126.63 86.2705 -126.63
c55.9102 0 88.8203 59.2695 88.8203 158.09c0 81.3604 -23.8203 176.721 -64.4502 259.091h152.45z" />
    <glyph glyph-name="iotatonos" unicode="&#x3af;" horiz-adv-x="357" 
d="M78.3604 598.91l54.5508 152h155.27l-99.3604 -152h-110.46zM273.001 -3c-129.91 0 -208.28 75.54 -208.28 201.82v341.18h146v-332.18c0 -52.2803 30.1904 -80.6406 85.2803 -80.6406h46.8203v-130.18h-69.8203z" />
    <glyph glyph-name="iotadieresis" unicode="&#x3ca;" horiz-adv-x="357" 
d="M-52.5498 609.54v138.18h154.73v-138.18h-154.73zM177.9 609.54v138.18h154.73v-138.18h-154.73zM272.99 -3.01074c-129.91 0 -208.27 75.54 -208.27 201.81v341.18h146v-332.18c0 -52.2695 30.1797 -80.6299 85.2695 -80.6299h46.8203v-130.18h-69.8203z" />
    <glyph glyph-name="iotadieresistonos" unicode="&#x390;" horiz-adv-x="357" 
d="M90 598.91l31.9102 152h127.63l-67.6299 -152h-91.9102zM-47.1797 626.72v106.28h112.09v-106.28h-112.09zM260.91 626.72v106.28h112.09v-106.28h-112.09zM273 -3c-129.91 0 -208.28 75.54 -208.28 201.82v341.18h146v-332.18
c0 -52.2803 30.1904 -80.6406 85.2803 -80.6406h46.8203v-130.18h-69.8203z" />
    <glyph glyph-name="upsilontonos" unicode="&#x3cd;" horiz-adv-x="633" 
d="M254.63 598.91l54.5508 152h155.27l-99.3604 -152h-110.46zM316.82 -15.2803c-152.55 0 -254.1 97.46 -254.1 243.28v312h146v-295.37c0 -76.8096 40.6396 -122.63 108.1 -122.63c67.6299 0 107.27 46.8203 107.27 122.63v295.37h146v-312
c0 -145.82 -100.55 -243.28 -253.27 -243.28z" />
    <glyph glyph-name="upsilondieresis" unicode="&#x3cb;" horiz-adv-x="633" 
d="M123.73 609.54v138.18h154.73v-138.18h-154.73zM354.19 609.54v138.18h154.73v-138.18h-154.73zM316.83 -15.2803c-152.54 0 -254.089 97.4502 -254.089 243.271v312h146v-295.36c0 -76.8203 40.6396 -122.641 108.09 -122.641
c67.6396 0 107.279 46.8203 107.279 122.641v295.36h146v-312c0 -145.82 -100.55 -243.271 -253.28 -243.271z" />
    <glyph glyph-name="upsilondieresistonos" unicode="&#x3b0;" horiz-adv-x="633" 
d="M233.91 598.91l37.1797 152h136.91l-66.46 -152h-107.63zM98 626.72v106.28h112.09v-106.28h-112.09zM425.27 626.72v106.28h112.09v-106.28h-112.09zM316.819 -15.2803c-152.55 0 -254.1 97.46 -254.1 243.28v312h146v-295.37c0 -76.8096 40.6396 -122.63 108.1 -122.63
c67.6299 0 107.27 46.8203 107.27 122.63v295.37h146v-312c0 -145.82 -100.55 -243.28 -253.27 -243.28z" />
    <glyph glyph-name="omicrontonos" unicode="&#x3cc;" horiz-adv-x="653" 
d="M263.55 598.91l54.541 152h155.27l-99.3604 -152h-110.45zM326.551 -15.2695c-167.27 0 -291.909 122.449 -291.909 285.27c0 163.82 124.64 285.28 291.909 285.28c166.45 0 291.91 -121.64 291.91 -285.279c0 -162.82 -125.46 -285.271 -291.91 -285.271z
M326.551 121.999c84.1797 0 143.91 60.54 143.91 148c0 87.4502 -59.7305 148 -143.91 148s-143.91 -60.5498 -143.91 -148c0 -87.46 59.7305 -148 143.91 -148z" />
    <glyph glyph-name="omegatonos" unicode="&#x3ce;" horiz-adv-x="862" 
d="M578.91 750.91l-99.3701 -152h-110.45l54.54 152h155.28zM761.271 540c39 -93.46 60 -188.642 60 -275.642c0 -171.64 -80.2695 -279.449 -206.359 -279.449c-88.6904 0 -157.721 50.4902 -184.121 134.55c-26.5703 -84.0596 -95.7207 -134.55 -184.251 -134.55
c-126.09 0 -206.18 107.45 -206.18 279.271c0 87 20.8203 181.82 59.8203 275.82h152.64c-41.8203 -82.5498 -65.6406 -177.91 -65.6406 -259.28c0 -98.4502 33.9102 -157.9 89.6406 -157.9c52.0898 0 86.4502 49.54 86.4502 126.63v180.37h134.91v-180.37
c0 -77.0898 34.3604 -126.63 86.2705 -126.63c55.9102 0 88.8203 59.2695 88.8203 158.09c0 81.3604 -23.8203 176.721 -64.4502 259.091h152.45z" />
    <glyph glyph-name="alphatonos" unicode="&#x3ac;" horiz-adv-x="690" 
d="M488.27 750.91l-99.3594 -152h-110.46l54.5498 152h155.27zM510.91 540.82l108.981 -0.00976562v-540h-114.45l-12.5498 48.3096c-46.3701 -40.5996 -106.87 -64.3994 -174.99 -64.3994c-162.45 0 -283.271 122.64 -283.271 286.09
c0 162.82 120.82 284.46 283.271 284.46c69.3096 0 130.729 -24.4297 177.409 -66.0498zM329.802 122.811c84.8203 0 147 63.1797 147 148s-62.1797 148 -147 148s-147.181 -63.3604 -147.181 -148s62.3604 -148 147.181 -148z" />
    <glyph glyph-name="epsilontonos" unicode="&#x3ad;" horiz-adv-x="503" 
d="M414.27 750.91l-99.3594 -152h-110.46l54.5498 152h155.27zM345.18 183.45h132.818c-1.63965 -119.82 -89.1797 -197.91 -220.55 -197.91c-130.36 0 -221.45 76.5498 -221.45 186.18c0 54.0195 21.8398 91.6992 69.5801 119.169
c-37.6299 27.8496 -53.1299 58.5693 -53.1299 100.47c0 95.1797 85.2695 163.09 204.46 163.09c122.72 0 207.45 -69 208.91 -172.09h-132.46c-3.08984 38.6396 -30.1797 61.0898 -72.6396 61.0898c-44.3604 0 -69.54 -21.3604 -69.54 -55.6299
c0 -32.0996 23.7305 -50.8193 66.2705 -50.8193h58.1797v-105h-58.1797c-48.54 0 -78.0898 -22.0898 -78.0898 -57.5498c0 -37.6299 31 -60.7295 78.0898 -60.7295c53.7305 0 85.8203 26.2803 87.7305 69.7305z" />
    <glyph glyph-name="etatonos" unicode="&#x3ae;" horiz-adv-x="641" 
d="M502.54 750.91l-99.3594 -152h-110.46l54.5498 152h155.27zM379.271 555.271c122.27 0 198.181 -87.1787 198.181 -225.549v-524.36h-146v493.36c0 81.6396 -31 121 -94.1797 121c-75.2695 0 -121.18 -53.9004 -121.18 -140.811v-278.91h-146v540h100.18
l28.1299 -65.9697c41.1396 49.7197 106.479 81.2393 180.869 81.2393z" />
    <glyph glyph-name="zero" unicode="0" horiz-adv-x="634" 
d="M316.91 -12c-165.55 0 -269.64 133 -269.64 345c0 212.89 103.09 344.819 269.64 344.819c166.36 0 269.45 -131.93 269.45 -344.819c0 -212 -104.09 -345 -269.45 -345zM316.91 121.27c81.0898 0 125.45 74.0898 125.45 210.91c0 136.7 -45.1797 212.36 -125.449 212.36
c-81.2803 0 -125.641 -74.8398 -125.641 -211.54c0 -136.82 44.1797 -211.73 125.64 -211.73z" />
    <glyph glyph-name="one" unicode="1" horiz-adv-x="360" 
d="M34.1797 665h244.091v-665h-140.36v539.63h-103.73v125.37z" />
    <glyph glyph-name="two" unicode="2" horiz-adv-x="548" 
d="M295.9 134.09h203.01v-134.09h-466.19v31.2695c273.82 316.42 309.641 368.27 309.641 437c0 46.1797 -31.0898 77.0898 -76.1797 77.0898c-47.2695 0 -77.9092 -31.9102 -77.9092 -78.9102v-12.7305h-143v14.3701c0 122.09 85.6396 210.54 218.449 210.54
c130.64 0 222.64 -86.54 222.64 -208.72c0 -81.6396 -35.0898 -156.01 -190.46 -335.819z" />
    <glyph glyph-name="three" unicode="3" horiz-adv-x="551" 
d="M344.02 419.13c98.75 -22.1396 162.801 -101.223 162.801 -205.772c0 -130.27 -100.28 -225.359 -235.641 -225.359c-132.18 0 -225.46 90.9102 -229.82 221.91h142.82c2.54004 -53.5498 36.7305 -88.6396 87 -88.6396c53.4502 0 91.6406 39.8203 91.6406 96.7305
s-40.5498 92.4502 -101.64 92.4502h-96.6396v26.8203l121.14 199.91h-228.23v127.82h424.18v-26.5498z" />
    <glyph glyph-name="four" unicode="4" horiz-adv-x="557" 
d="M527.72 252.36l-0.000976562 -124.821h-57.3604v-127.54h-134.45v127.54h-319.19v25.7305l218.91 511.73h141.28l-176.84 -412.64h139.49l22.9805 158.27h107.82v-158.27h57.3604z" />
    <glyph glyph-name="five" unicode="5" horiz-adv-x="545" 
d="M268.27 432.64c138.91 0 237.369 -92.3604 237.369 -218.45c0 -129.27 -100.27 -226.18 -232.819 -226.18c-134.18 0 -232.729 93.7305 -233.46 221.091h144.45c0.730469 -50.9102 37.7305 -87.8203 89 -87.8203c50.6396 0 88.8193 39.6396 88.8193 92.9092
c0 56.7305 -40.54 96.7305 -98.8096 96.7305h-186.55l-13.6396 18.0898l37.2695 336h359.73v-127.82h-246.84l-11.7803 -104.55h67.2598z" />
    <glyph glyph-name="six" unicode="6" horiz-adv-x="571" 
d="M326.18 441.54c126.18 0 218.818 -86.8193 218.818 -214.089c0 -140.36 -104.09 -239.45 -250.46 -239.45c-149.18 0 -252.449 98.2695 -252.449 239.449c0 59.0898 16.1797 120.64 68.9102 211l132.18 227.64h156.91
c-55.5996 -96.3604 -95.1895 -163.16 -135.749 -233.96c20.5898 6.2998 41.5498 9.41016 61.8398 9.41016zM293.539 120.451c62.46 0 107.46 43.6387 107.46 106.999c0 64.3701 -45 107.82 -107.46 107.82c-61.6299 0 -107.45 -43.6396 -107.45 -107.819
c0 -63.1797 45.8203 -107 107.45 -107z" />
    <glyph glyph-name="seven" unicode="7" horiz-adv-x="524" 
d="M28.4502 665h475.909v-19.0898l-253.64 -645.91h-148.18l213.11 537.18h-287.2v127.82z" />
    <glyph glyph-name="eight" unicode="8" horiz-adv-x="588" 
d="M455.9 352.98c57.4004 -36.6602 86.4795 -87.4609 86.4795 -152.421c0 -124.09 -102.91 -212.55 -248.641 -212.55c-146.09 0 -247.64 87.0898 -247.64 212.54c0 65.2598 28.3604 116 86.2002 152.57c-44.8799 34.9805 -68.1104 80.79 -68.1104 135.7
c0 110.91 94.3604 189.82 230.36 189.82s229.36 -77.9102 229.36 -189.82c0 -56.04 -23.3398 -102.28 -68.0098 -135.84zM294.56 562.56c-52.9102 0 -90.8203 -33.1797 -90.8203 -77.8193c0 -44.8203 37.9102 -78 90.8203 -78c52.7305 0 89.8203 33.1797 89.8203 78
c0 44.6396 -37.0898 77.8193 -89.8203 77.8193zM294.56 110.38c63.4502 0 105.45 37.9102 105.45 92.0898c0 54.3604 -42 92.2705 -105.45 92.2705c-63.2695 0 -106.09 -37.9102 -106.09 -92.2705c0 -54.1797 42.8203 -92.0898 106.09 -92.0898z" />
    <glyph glyph-name="nine" unicode="9" horiz-adv-x="571" 
d="M277 678.63c149 0 252.093 -98.2715 252.093 -239.451c0 -59.0898 -15.6396 -120.82 -68.5498 -211l-133 -228.18h-156.91c55.0996 94.4805 95.6592 163.41 136.509 234.48c-20.2695 -6.20996 -41.0498 -9.38965 -61.7803 -9.38965
c-127.82 0 -218.641 88.6299 -218.641 214.09c0 140.36 104.1 239.45 250.279 239.45zM278.003 329.908c65.54 0 113.63 44.4492 113.63 109.27c0 64 -48.0898 108.64 -113.63 108.64c-66.3701 0 -113.82 -44.46 -113.82 -108.64c0 -65 47.4502 -109.27 113.82 -109.27z" />
    <glyph glyph-name="zero.sinf" horiz-adv-x="394" 
d="M197.18 -83.9102c-101.55 0 -165.271 78.6299 -165.271 206.18c0 126.09 62.9102 205.18 165.271 205.18s165.271 -79.0898 165.271 -205.18c0 -127.55 -63.7305 -206.18 -165.271 -206.18zM197.179 10.3594c40.8203 0 65.0898 39.46 65.0898 111.09
c0 70.8203 -24.2695 111.73 -65.0898 111.73s-64.9102 -40.0898 -64.9102 -110.91c0 -71.4502 23.9102 -111.91 64.9102 -111.91z" />
    <glyph glyph-name="one.sinf" horiz-adv-x="240" 
d="M20.7197 318h167.73v-395.55h-101.82v310.09h-65.9102v85.46z" />
    <glyph glyph-name="two.sinf" horiz-adv-x="348" 
d="M200.46 13.0898l115.26 -0.000976562v-89.6396h-291v21.9102c160.82 189.36 182.641 220.181 182.641 255.461c0 25.2695 -15.0898 41.1797 -37.54 41.1797c-24.46 0 -40.5498 -16.9102 -40.5498 -43.8203v-8h-97.3604v7.17969c0 81 51.4502 131.91 136.91 131.91
c82 0 138.72 -51.2695 138.72 -126c0 -49.4297 -19.96 -87.04 -107.08 -190.18z" />
    <glyph glyph-name="three.sinf" horiz-adv-x="344" 
d="M220.33 172.81c56.9297 -13.9102 94.29 -60.0205 94.29 -121.54c0 -78.9102 -60.9102 -136 -145.271 -136c-82 0 -139.27 55.0898 -141.27 134.64h91.4502c1.17969 -29.7305 20.9102 -50.2803 49.8203 -50.2803c30.2695 0 52 21.7305 52 53.8203
c0 31.9102 -22.0898 51 -57 51h-60.3604v17.9102l66.9199 112.46h-133v83h262.72v-17.46z" />
    <glyph glyph-name="four.sinf" horiz-adv-x="356" 
d="M332.91 77.8203v-82h-35v-73.3701h-92.0898v73.3701h-190.73v17.0898l128.63 305.09h95.9102l-100.84 -240.18h71.4004l18.6299 90.2695h69.0898v-90.2695h35z" />
    <glyph glyph-name="five.sinf" horiz-adv-x="338" 
d="M167 182.18c86.3604 0 145.63 -54.4609 145.63 -130.73c0 -78.7305 -60.2695 -136 -143.27 -136c-83.3604 0 -142.641 56.9102 -142.641 134.641h91.6396c0.179688 -28.9102 21.7295 -50.46 50.999 -50.46c29.0898 0 49.8203 21.7305 49.8203 51.8203
c0 30.2695 -21.9102 52.1797 -54 52.1797h-119.09l-8.63965 10.8203l21.8203 203.55h225.73v-83h-149.99l-5.74023 -52.8203h37.7305z" />
    <glyph glyph-name="six.sinf" horiz-adv-x="359" 
d="M204.91 187.18c77.3604 0 133.358 -52.459 133.358 -128.549c0 -86.3604 -63.0898 -145.63 -154.09 -145.63c-93 0 -155.27 59.0898 -155.27 145.63c0 38.0898 11 77.5498 42.4502 131.64l76 128.55h106.36l-69.6299 -116.19
c-3.63965 -6.16992 -7.2793 -12.3496 -10.7793 -18.3398c10.4902 2 21.5098 2.88965 31.5996 2.88965zM183.178 -1.81934c37.0898 0 62.6396 24.54 62.6396 60.4502c0 35.7305 -25.5498 60.4609 -62.6396 60.4609c-35.2695 0 -61.8193 -24.7305 -61.8193 -60.4609
c0 -35.9102 26.5498 -60.4502 61.8193 -60.4502z" />
    <glyph glyph-name="seven.sinf" horiz-adv-x="315" 
d="M22.3604 318.82h277.36v-11.6396l-145.36 -384.73h-97.0898l116.09 306.82h-151v89.5498z" />
    <glyph glyph-name="eight.sinf" horiz-adv-x="355" 
d="M273.55 132.4c33.5996 -22.4697 49.6309 -52.4688 49.6309 -90.5791c0 -81.46 -70.9102 -124.91 -145.73 -124.91s-145.54 43.4502 -145.54 124.91c0 38.0195 15.21 69.1895 49.0898 90.9199c-26.1201 21.2305 -38.9102 47.2402 -38.9102 81.1699
c0 74.2695 65.0898 113.539 135.54 113.539c70.2803 0 135.37 -39.2695 135.37 -113.539c0 -34.8301 -13.0801 -61.3105 -39.4502 -81.5107zM178.451 253.541c-25 0 -47.3604 -15.2695 -47.3604 -42.2695c0 -27.1797 22.3604 -42.2695 47.3604 -42.2695
c24 0 46.3701 15.0898 46.3701 43.0898c0 26.1797 -22.3701 41.4492 -46.3701 41.4492zM178.451 -5.17871c28.5498 0 53.9092 16.4492 53.9092 49.4492c0 31.5498 -26.1797 49 -55.54 49c-28.5498 0 -54.0996 -16.6396 -54.0996 -49
c0 -32.1797 26.3701 -49.4492 55.7305 -49.4492z" />
    <glyph glyph-name="nine.sinf" horiz-adv-x="359" 
d="M175 329.27c93 0 155.271 -59.0889 155.271 -145.639c0 -38.0898 -11 -77.54 -42.4502 -132.45l-76 -127.73h-106.37l65.5498 109.64c5.05957 8.91992 9.76953 16.4102 14.4092 24.1299c-10.3496 -2.17969 -21.1992 -2.94922 -31.1396 -2.94922
c-77.3604 0 -133.36 53.2695 -133.36 129.359c0 86.3701 63.0898 145.64 154.09 145.64zM176.002 123.181c35.2695 0 61.8193 24.54 61.8193 60.4502c0 35.0898 -26.5498 59.6396 -61.8193 59.6396c-37.0898 0 -62.6396 -24.5498 -62.6396 -59.6396
c0 -35.9102 25.5498 -60.4502 62.6396 -60.4502z" />
    </font>
</defs>
</svg>
